Welcome Guest ( Log In | Register )

> Releases Upload / Добавление релизов

Добавить релиз тут / Click here to add release
Рекомендованные обменники / Recommended file shares

 
Reply to this topicStart new topic
> Deadtrees - No One Knows Who Has Been To This World (2021), Atmospheric/Post-Black Metal (D5)
post Jun 22 2022, 14:34:23
Post #1

Правь статус, 616
**************
Group: Металариец
Posts: 7,503
Releases: 5892
From: 55°35’N 38°08’E
On Forums: 13 years 11 months
Thanks: 109066 time(s)
Russian Federation


(IMG:https://metalarea.org/images/audiocovers/2022_Jun/acov_tid366340_thumb.jpg)

*Artist: Deadtrees
*Album: No One Knows Who Has Been To This World
*Year: 2021
*Genre: Atmospheric/Post-Black Metal
*Country: China (IMG:https://metalarea.org/forum/style_images/flags/China.png)
*Format: mp3@CBR320kbps
*Size: 111MB

Tracklist:
1. Befall 03:55
2. Order 07:31
3. No One Knows Who Has Been to This World 06:38
4. Desire and Death Inherent in the Universe 08:02
5. Increase of Entropy 07:24
6. JF1 (remix) 07:39
7. Standing of BDO 07:03
******************************
Total playing time: 48:12



Technical info
(IMG:https://metalarea.org/images/spectrogram/2022_Jun/936e751455ef31a481c2c3d73f24e5a0.png)
Input File: 01 Befall.mp3
Channels : 2
Sample Rate : 44100
Precision : 16-bit
Duration : 00:03:55.28 = 10375628 samples = 17645.6 CDDA sectors
File Size : 9.58M
Bit Rate : 326k
Sample Encoding: MPEG audio (layer I, II or III)
Comments :
Title=Befall
Artist=DEADTREES
Album=No one knows who has been to this world
Tracknumber=1
Year=2021
Genre=Black Metal



Register


Go to the top of the page
  Insert nick Quick quote
+Quote Post

Reply to this topicStart new topic
1 User(s) are reading this topic (1 Guests and 0 Anonymous Users)
0 Members:

 



- Lo-Fi Version Support form
Copyrights and abuse reports form
Time is now: 6th July 2022 - 16:55:18