Welcome Guest ( Log In | Register )

 
Reply to this topicStart new topic
> Bethzaida - Nine Worlds [demo] (1995), Death/Black Metal (D)
post Jun 22 2022, 14:42:54
Post #1

Подвал
**************
Group: Металариец
Posts: 17,405
Releases: 9960
From: Far East (Khabarovsk)
On Forums: 13 years 5 months
Thanks: 115465 time(s)
Russian Federation


(IMG:http://metalarea.org/images/audiocovers/2022_Jun/acov_tid366341_thumb.JPG)

*Artist: Bethzaida
*Album: Nine Worlds [demo]
*Year: 1995
*Genre: Death/Black Metal
*Country: Norway (IMG:http://metalarea.org/forum/style_images/flags/Norway.png)
*Format: mp3@CBR192kbps
*Size: 32MB

Tracklist:
1. Dawn (Part II) 04:50
2. Nine Worlds 03:30
3. All My Life 03:21
4. Dividement 05:36
5. Mortal Thoughts 03:51
6. Change Of Seasons 02:02
******************************
Total playing time: 23:10

Extended info
Recorded March 31 - April 2, 1995 at Torsksound Studios, Norway.


Technical info
(IMG:http://metalarea.org/images/spectrogram/2022_Jun/9a63f872280eca253288bd342af84cd7.png)
Input File: 01-Dawn (Part II).mp3
Channels : 2
Sample Rate : 44100
Precision : 16-bit
Duration : 00:04:56.63 = 13081559 samples = 22247.5 CDDA sectors
File Size : 7.12M
Bit Rate : 192k
Sample Encoding: MPEG audio (layer I, II or III)
Comments :
Title=Dawn (Part II)
Artist=Bethzaida (Nor)
Album=Nine Worlds (Demo)
Tracknumber=01
Year=1995
Genre=Metal



Register


Go to the top of the page
  Insert nick Quick quote
+Quote Post

Reply to this topicStart new topic
1 User(s) are reading this topic (1 Guests and 0 Anonymous Users)
0 Members:

 



- Lo-Fi Version Support form
Copyrights and abuse reports form
Time is now: 6th July 2022 - 17:04:16