Welcome Guest ( Log In | Register )

> Releases Upload / Добавление релизов

Добавить релиз тут / Click here to add release
Рекомендованные обменники / Recommended file shares

> Only Emptiness - Seize The Day (2022), Thrash/Melodic Death Metal
post Jun 22 2022, 14:49:14
Post #1

Правь статус, ####!111
**************
Group: Металариец
Posts: 29,681
Releases: 21833
From: Г.Харьков
On Forums: 10 years 1 month
Thanks: 452741 time(s)
Unknown


(IMG:https://metalarea.org/images/audiocovers/2022_Jun/acov_tid366342_thumb.jpg)

*Artist: Only Emptiness
*Album: Seize The Day
*Year: 2022
*Genre: Thrash/Melodic Death Metal
*Country: Finland (IMG:https://metalarea.org/forum/style_images/flags/Finland.png)
*Format: mp3@CBR320kbps
*Size: 121MB

Tracklist:
1. Walls 04:45
2. No More 05:52
3. Seize the Day 05:01
4. My Chosen One 06:37
5. Hollow Shell of Me 04:38
6. Inhuman 04:49
7. Time for You to Go 05:04
8. I Bite the Moon 04:14
9. Ashstricken Wastes 04:51
10. The Lake 06:31
******************************
Total playing time: 52:22



Extended info
Jukka-Pekka Kujala Bass
Julius Kaakko Drums
Mikko Korkiavuori Guitars (lead)
See also: ex-Luotettava Todistus
Jarkko Olmala Guitars (rhythm)



Technical info
(IMG:https://metalarea.org/images/spectrogram/2022_Jun/e91464b4979b3f90351a15acec1808e5.png)
Input File: 07 - Time For You To Go.mp3
Channels : 2
Sample Rate : 44100
Precision : 16-bit
Duration : 00:05:04.00 = 13406400 samples = 22800 CDDA sectors
File Size : 12.4M
Bit Rate : 326k
Sample Encoding: MPEG audio (layer I, II or III)
Comments :
Title=Time For You To Go
Artist=Only Emptiness
Album=Seize The Day
Tracknumber=7
Year=2022-05-24
Genre=Metal
Discnumber=1



Register


Go to the top of the page
  Insert nick Quick quote
+Quote Post
 
Start new topic
Replies (1 - 1)
post Jul 2 2022, 18:00:50
Post #2

MDM-Thrash Metal
**************
Group: Металариец
Posts: 11,204
Releases: 1526
From: Одесса
On Forums: 14 years 10 months
Thanks: 36258 time(s)
Ukraine


Очень слабо.
Go to the top of the page
  Insert nick Quick quote
+Quote Post

Reply to this topicStart new topic
1 User(s) are reading this topic (1 Guests and 0 Anonymous Users)
0 Members:

 



- Lo-Fi Version Support form
Copyrights and abuse reports form
Time is now: 6th July 2022 - 17:19:10