Welcome Guest ( Log In | Register )

> Hidden Crystal - Hidden Crystal [demo] (1987), Progressive Heavy Metal
post Jun 22 2022, 14:58:58
Post #1

Подвал
**************
Group: Металариец
Posts: 17,405
Releases: 9960
From: Far East (Khabarovsk)
On Forums: 13 years 5 months
Thanks: 115465 time(s)
Russian Federation


(IMG:http://metalarea.org/images/audiocovers/2022_Jun/acov_tid366343_thumb.jpg)

*Artist: Hidden Crystal
*Album: Hidden Crystal [demo]
*Year: 1987
*Genre: Progressive Heavy Metal
*Country: Switzerland (IMG:http://metalarea.org/forum/style_images/flags/Switzerland.png)
*Format: mp3@CBR320kbps
*Size: 37MB

Tracklist:
1. First Message 03:51
2. Into The Labyrinth 04:57
3. Hidden Crystal 04:50
4. Golden Throne 03:53
******************************
Total playing time: 17:31

(IMG:http://metalarea.org/images/youtube.png)

Extended info
Instrumental Demo.
Thanks for this Messendger80.


Technical info
(IMG:http://metalarea.org/images/spectrogram/2022_Jun/e244a1a4dc32472da33db061a956d7c0.png)
Input File: 01-First Message.mp3
Channels : 2
Sample Rate : 44100
Precision : 16-bit
Duration : 00:03:50.72 = 10174576 samples = 17303.7 CDDA sectors
File Size : 9.23M
Bit Rate : 320k
Sample Encoding: MPEG audio (layer I, II or III)
Comments :
Title=First Message
Artist=Hidden Crystal
Album=Demo 1987
Tracknumber=01
Year=1987
Genre=Heavy Metal



Register


Go to the top of the page
  Insert nick Quick quote
+Quote Post
 
Start new topic
Replies (1 - 1)
post Jun 23 2022, 13:46:05
Post #2

Маньяк
**********
Group: Металариец
Posts: 1,044
Releases: 0
From: China
On Forums: 14 years 6 months
Thanks: 802 time(s)
Bulgaria


very good all-instrumental power metal; the sound quality is muddy and not very clear, but the guys do a job no worse than Vinnie Moore and Tony Fredianelli (Apocrypha) from the Shrapnel company. Heavy virtuoso stuff without being very complex
Go to the top of the page
  Insert nick Quick quote
+Quote Post

Reply to this topicStart new topic
1 User(s) are reading this topic (1 Guests and 0 Anonymous Users)
0 Members:

 



- Lo-Fi Version Support form
Copyrights and abuse reports form
Time is now: 6th July 2022 - 17:30:27