Welcome Guest ( Log In | Register )

> Releases Upload / Добавление релизов

Добавить релиз тут / Click here to add release
Рекомендованные обменники / Recommended file shares

> Melancholy Pessimism - Shut Up, Give Up And Obey! (2022), Technical Death Metal/Grindcore (D)
post Jun 22 2022, 17:08:59
Post #1

Правь статус, ####!111
**************
Group: Металариец
Posts: 2,985
Releases: 1518
On Forums: 11 years 7 months
Thanks: 29867 time(s)
Russian Federation


(IMG:https://metalarea.org/images/audiocovers/2022_Jun/acov_tid366344_thumb.jpg)

*Artist: Melancholy Pessimism
*Album: Shut Up, Give Up And Obey!
*Year: 2022
*Genre: Technical Death Metal/Grindcore
*Country: Czech Republic (IMG:https://metalarea.org/forum/style_images/flags/Czech%20Republic.png)
*Format: mp3@CBR320kbps
*Size: 90MB

Tracklist:
1.Shut Up, Give Up And Obey! 05:58
2.Escape To Freedoom 03:49
3.Six Steps From Disgust To Attraction 04:11
4.Pandemic Corruption 03:23
5.Public Agenda Of Fear 03:50
6.Global Cacophony 04:06
7.Indulgences And Hypocrisy 04:01
8.Pyramidal Power 04:06
9.War Funeral March 05:52
******************************
Total playing time: 39:16



Technical info
(IMG:https://metalarea.org/images/spectrogram/2022_Jun/8ceb58bfa4822c985a217cdec23c8e51.png)
Input File: 04. Pandemic Corruption.mp3
Channels : 2
Sample Rate : 44100
Precision : 16-bit
Duration : 00:03:23.22 = 8962002 samples = 15241.5 CDDA sectors
File Size : 8.32M
Bit Rate : 328k
Sample Encoding: MPEG audio (layer I, II or III)
Comments :
Title=Pandemic Corruption
Artist=Melancholy Pessimism
Album=Shut Up, Give Up and Obey!
Tracknumber=04
Year=2022
Genre=Blackened Technical Death Metal



Register


Go to the top of the page
  Insert nick Quick quote
+Quote Post
 
Start new topic
Replies (1 - 3)
post Jun 23 2022, 09:43:18
Post #2
BAN
RO till
Jul 8 2022, 17:25:26



Пластиковая гитара, имитационная. Металлом тут даже не пахнет, какой дэт, какой грайнд?
Go to the top of the page
  Insert nick Quick quote
+Quote Post
post Jun 23 2022, 14:15:35
Post #3

Семь Литров
*******
Group: Металариец
Posts: 729
Releases: 0
From: Нижний Новгород
On Forums: 15 years 11 months
Thanks: 303 time(s)
Russian Federation


Хорошие чехи, надо брать!
Мощно, быстро, без хитростей. Шевелят как положено!
Go to the top of the page
  Insert nick Quick quote
+Quote Post
post Jul 4 2022, 14:12:37
Post #4

добрый мизантроп
**************
Group: Металариец
Posts: 3,020
Releases: 1
From: Менск
On Forums: 11 years 7 months
Thanks: 1337 time(s)
Madagascar


Classic Death Metal 9.5/10
Go to the top of the page
  Insert nick Quick quote
+Quote Post

Reply to this topicStart new topic
2 User(s) are reading this topic (2 Guests and 0 Anonymous Users)
0 Members:

 



- Lo-Fi Version Support form
Copyrights and abuse reports form
Time is now: 7th July 2022 - 11:32:05