Welcome Guest ( Log In | Register )

> Releases Upload / Добавление релизов

Добавить релиз тут / Click here to add release
Рекомендованные обменники / Recommended file shares

> Anatomical Amusements - Corporal Kaleidoscope (2022), Death Metal
post Jun 22 2022, 17:24:22
Post #1

Правь статус, ####!111
**************
Group: Металариец
Posts: 3,236
Releases: 1744
On Forums: 11 years 8 months
Thanks: 33900 time(s)
Russian Federation


(IMG:https://metalarea.org/images/audiocovers/2022_Jun/acov_tid366345_thumb.jpg)

*Artist: Anatomical Amusements
*Album: Corporal Kaleidoscope
*Year: 2022
*Genre: Death Metal
*Country: Japan (IMG:https://metalarea.org/forum/style_images/flags/Japan.png)
*Format: mp3@CBR320kbps
*Size: 86MB

Tracklist:
1.Decay Fever 01:59
2.Fatal Scenarios 05:35
3.Trends In Pathology 06:00
4.Suppurative Fugues And Purulent Etudes 07:18
5.Cadaverism 05:53
6.Close The Chapter - Farewell In Crematory Stoves 10:00
******************************
Total playing time: 36:45



Extended info
Debut full album from Japanese death metal studio project (Pharmacist member).
For fans of Carcass – Heatwork!!!


Technical info
(IMG:https://metalarea.org/images/spectrogram/2022_Jun/c191e941555069ea27762cfb49b3d79f.png)
Input File: 01 Decay Fever.mp3
Channels : 2
Sample Rate : 44100
Precision : 16-bit
Duration : 00:01:59.91 = 5288075 samples = 8993.32 CDDA sectors
File Size : 4.94M
Bit Rate : 330k
Sample Encoding: MPEG audio (layer I, II or III)
Comments :
Title=Decay Fever
Artist=Anatomical Amusements
Album=Corporal Kaleidoscope
Tracknumber=01
Year=2022
Genre=Death Metal



Register


Go to the top of the page
  Insert nick Quick quote
+Quote Post
 
Start new topic
Replies (1 - 2)
post Jun 22 2022, 23:30:07
Post #2

Три Литра
***
Group: Завсегдатай
Posts: 274
Releases: 0
On Forums: 12 years 9 months
Thanks: 84 time(s)
Unknown


Видно, что эти ребята, как и я, большие фанаты альбома Каркас - Некротицизм. Пытаются изо всех сил копировать и цитировать этот альбом. Это вроде бы и неплохо, но не хватает техничных соло в духе Билла Стира.
Но в плюс альбому можно записать нормальный ДР в районе восьмерки. Есть еще люди, которые понимают, что ДР ниже 7 - это не гут.


Thanks:
Go to the top of the page
  Insert nick Quick quote
+Quote Post
post Jun 24 2022, 10:42:44
Post #3

Мегаманьяк
***********
Group: Металариец
Posts: 1,740
Releases: 1
From: APATIN, SERBIA, АПАТИН, СЕРБИЯ
On Forums: 14 years 9 months
Thanks: 5180 time(s)



Flac

Register


Thanks:
(1) Olethros,
Go to the top of the page
  Insert nick Quick quote
+Quote Post

Reply to this topicStart new topic
1 User(s) are reading this topic (1 Guests and 0 Anonymous Users)
0 Members:

 



- Lo-Fi Version Support form
Copyrights and abuse reports form
Time is now: 17th August 2022 - 08:16:23