Welcome Guest ( Log In | Register )

> Releases Upload / Добавление релизов

Добавить релиз тут / Click here to add release
Рекомендованные обменники / Recommended file shares

 
Reply to this topicStart new topic
> Channels - Malabarismo De Palabras En Crisis Mundial (2022), Black/Heavy Metal
post Jun 22 2022, 17:43:08
Post #1

Правь статус, ####!111
**************
Group: Металариец
Posts: 29,934
Releases: 22028
From: Г.Харьков
On Forums: 10 years 3 months
Thanks: 458245 time(s)
Unknown


(IMG:https://metalarea.org/images/audiocovers/2022_Jun/acov_tid366347_thumb.jpg)

*Artist: Channels
*Album: Malabarismo De Palabras En Crisis Mundial
*Year: 2022
*Genre: Black/Heavy Metal
*Country: Costa Rica (IMG:https://metalarea.org/forum/style_images/flags/Costa%20Rica.png)
*Format: mp3@CBR320kbps
*Size: 77MB

Tracklist:
1. Zélema 03:39
2. Cán(s)er 04:04
3. La calavera de dios 04:31
4. Némesis 03:45
5. Ora pro nobis 03:54
6. Resaca serial 04:18
7. Seis metros bajo el suelo 04:59
8. Viaje sin regreso 04:39
******************************
Total playing time: 33:49



Extended info
David Canales Vocals, Guitars, Bass, Programming


Technical info
(IMG:https://metalarea.org/images/spectrogram/2022_Jun/ee8942629e70014430c3a956e5b838c0.png)
Input File: 07 - Seis metros bajo el suelo.mp3
Channels : 2
Sample Rate : 44100
Precision : 16-bit
Duration : 00:04:59.33 = 13200453 samples = 22449.8 CDDA sectors
File Size : 12.0M
Bit Rate : 320k
Sample Encoding: MPEG audio (layer I, II or III)
Comments :
Title=Seis metros bajo el suelo
Artist=Channels
Album=Malabarismo de Palabras en Crisis Mundial
Tracknumber=7
Year=2022



Register


Go to the top of the page
  Insert nick Quick quote
+Quote Post

Reply to this topicStart new topic
1 User(s) are reading this topic (1 Guests and 0 Anonymous Users)
0 Members:

 



- Lo-Fi Version Support form
Copyrights and abuse reports form
Time is now: 11th August 2022 - 19:45:11