Welcome Guest ( Log In | Register )

> Releases Upload / Добавление релизов

Добавить релиз тут / Click here to add release
Рекомендованные обменники / Recommended file shares

> Darewolf - Darewolf (2022), Heavy/Power Metal
post Jun 22 2022, 18:30:00
Post #1

Правь статус, ####!111
**************
Group: Металариец
Posts: 29,954
Releases: 22044
From: Г.Харьков
On Forums: 10 years 3 months
Thanks: 458704 time(s)
Unknown


(IMG:https://metalarea.org/images/audiocovers/2022_Jun/acov_tid366351_thumb.jpg)

*Artist: Darewolf
*Album: Darewolf
*Year: 2022
*Genre: Heavy/Power Metal
*Country: Portugal (IMG:https://metalarea.org/forum/style_images/flags/Portugal.png)
*Format: mp3@CBR320kbps
*Size: 79MB

Tracklist:
1. Darewolf - This Is... 00:44
2. Darewolf 04:04
3. Savage Poetry 03:30
4. Night Wish 07:13
5. Wicked Beast 05:08
6. Might 05:30
7. Prime 08:36
******************************
Total playing time: 34:45




Extended info
Bernardo Fernandes Bass
João Filipe Antunes Drums
Rui Pinto Guitars
Rui Baia Guitars, Vocals (backing)
Gonçalo Baia Vocals (lead)


Technical info
(IMG:https://metalarea.org/images/spectrogram/2022_Jun/6b4cf788e00fec994b9cb90c31725213.png)
Input File: 07 - Prime.mp3
Channels : 2
Sample Rate : 44100
Precision : 16-bit
Duration : 00:08:36.16 = 22762612 samples = 38711.9 CDDA sectors
File Size : 20.6M
Bit Rate : 320k
Sample Encoding: MPEG audio (layer I, II or III)
Comments :
Title=Prime
Artist=DareWolf
Album=Darewolf
Tracknumber=7
Year=2022



Register


Go to the top of the page
  Insert nick Quick quote
+Quote Post
 
Start new topic
Replies (1 - 1)
post Jun 24 2022, 08:20:19
Post #2

Семь Литров
*******
Group: Металариец
Posts: 723
Releases: 0
On Forums: 13 years 1 month
Thanks: 184 time(s)
Ukraine


Спасибо за новую группу!!!
Go to the top of the page
  Insert nick Quick quote
+Quote Post

Reply to this topicStart new topic
1 User(s) are reading this topic (1 Guests and 0 Anonymous Users)
0 Members:

 



- Lo-Fi Version Support form
Copyrights and abuse reports form
Time is now: 17th August 2022 - 12:21:52