Welcome Guest ( Log In | Register )

> Releases Upload / Добавление релизов

Добавить релиз тут / Click here to add release
Рекомендованные обменники / Recommended file shares

 
Reply to this topicStart new topic
> Stunner - 2099 (2022), Heavy Metal
post Jun 22 2022, 19:07:17
Post #1

Правь статус, ####!111
**************
Group: Металариец
Posts: 29,954
Releases: 22044
From: Г.Харьков
On Forums: 10 years 3 months
Thanks: 458700 time(s)
Unknown


(IMG:https://metalarea.org/images/audiocovers/2022_Jun/acov_tid366352_thumb.jpg)

*Artist: Stunner
*Album: 2099
*Year: 2022
*Genre: Heavy Metal
*Country: United States (IMG:https://metalarea.org/forum/style_images/flags/United%20States.png)
*Format: mp3@CBR320kbps
*Size: 87MB

Tracklist:
1. Golden Age 03:21
2. 2099 04:28
3. Spectral Stalker 04:41
4. Brain Peel 04:12
5. Megalopolis 04:43
6. Warrior in Time Eternal 04:18
7. Thrall of the Void 04:27
8. Forward to Valor 03:27
9. Street War 04:18
******************************
Total playing time: 37:55




Extended info
Daniel Drums, Vocals
Peter Guitars
See also: ex-In the Stone
Prince Regent Johnald Fairplay Guitars, Vocals
See also: Rot in Coffins
Bryan Mccauley Bass (2019-present)
See also: Widow and Children


Technical info
(IMG:https://metalarea.org/images/spectrogram/2022_Jun/fd984f15688d1cde1a60b0e557a6e1c0.png)
Input File: 07 - Thrall of the Void.mp3
Channels : 2
Sample Rate : 44100
Precision : 16-bit
Duration : 00:04:27.90 = 11814522 samples = 20092.7 CDDA sectors
File Size : 10.7M
Bit Rate : 320k
Sample Encoding: MPEG audio (layer I, II or III)
Comments :
Title=Thrall of the Void
Artist=STUNNER
Album=2099
Tracknumber=7
Year=2022



Register


Go to the top of the page
  Insert nick Quick quote
+Quote Post
post Jun 24 2022, 00:25:46
Post #2

Group: Дух
Posts: 3
Releases: 0
On Forums: 1 month 3 weeks
Thanks: 1 time(s)
Argentina


Thank You
Go to the top of the page
  Insert nick Quick quote
+Quote Post

Reply to this topicStart new topic
1 User(s) are reading this topic (1 Guests and 0 Anonymous Users)
0 Members:

 



- Lo-Fi Version Support form
Copyrights and abuse reports form
Time is now: 17th August 2022 - 08:37:33