Welcome Guest ( Log In | Register )

> Releases Upload / Добавление релизов

Добавить релиз тут / Click here to add release
Рекомендованные обменники / Recommended file shares

 
Reply to this topicStart new topic
> Razzia - Siguiendo La Huella [ep] (2022), Heavy/Thrash Metal
post Jun 22 2022, 19:17:28
Post #1

Правь статус, ####!111
**************
Group: Металариец
Posts: 29,934
Releases: 22028
From: Г.Харьков
On Forums: 10 years 3 months
Thanks: 458197 time(s)
Unknown


(IMG:https://metalarea.org/images/audiocovers/2022_Jun/acov_tid366353_thumb.jpg)

*Artist: Razzia
*Album: Siguiendo La Huella [ep]
*Year: 2022
*Genre: Heavy/Thrash Metal
*Country: Argentina (IMG:https://metalarea.org/forum/style_images/flags/Argentina.png)
*Format: mp3@CBR320kbps
*Size: 77MB

Tracklist:
1. Danzas macabras 05:22
2. El rastro del choique 05:05
3. Parcas descalzas 05:45
4. Anunciando el final 06:23
5. Kompuchewe 06:02
6. Emperrado 05:22
******************************
Total playing time: 33:59



Extended info
Fabián Sepúlveda Bass
Eduardo Monticelli Drums
Pala Guitars
Leonardo Aurelio Guitars
Santiago Reyes Vocals
Leo Vocals


Technical info
(IMG:https://metalarea.org/images/spectrogram/2022_Jun/208ad57f028bcd957b5ae4eaff8a75ba.png)
Input File: 05 - Emperrado.mp3
Channels : 2
Sample Rate : 44100
Precision : 16-bit
Duration : 00:05:22.87 = 14238479 samples = 24215.1 CDDA sectors
File Size : 12.9M
Bit Rate : 320k
Sample Encoding: MPEG audio (layer I, II or III)
Comments :
Title=Emperrado
Artist=Razzia
Album=Siguiendo la huella
Tracknumber=5
Year=2022



Register


Go to the top of the page
  Insert nick Quick quote
+Quote Post

Reply to this topicStart new topic
2 User(s) are reading this topic (2 Guests and 0 Anonymous Users)
0 Members:

 



- Lo-Fi Version Support form
Copyrights and abuse reports form
Time is now: 11th August 2022 - 07:02:03