Welcome Guest ( Log In | Register )

> Releases Upload / Добавление релизов

Добавить релиз тут / Click here to add release
Рекомендованные обменники / Recommended file shares

> Anunnaki - Aterrizaje (2022), Heavy/Power Metal
post Jun 22 2022, 19:38:31
Post #1

Правь статус, ####!111
**************
Group: Металариец
Posts: 29,954
Releases: 22044
From: Г.Харьков
On Forums: 10 years 3 months
Thanks: 458700 time(s)
Unknown


(IMG:https://metalarea.org/images/audiocovers/2022_Jun/acov_tid366354_thumb.jpg)

*Artist: Anunnaki
*Album: Aterrizaje
*Year: 2022
*Genre: Heavy/Power Metal
*Country: Spain (IMG:https://metalarea.org/forum/style_images/flags/Spain.png)
*Format: mp3@CBR320kbps
*Size: 146MB

Tracklist:
1. La leyenda de los Anunnaki 04:31
2. Alma blanca 04:06
3. Embrujada 04:18
4. Aterrizaje 04:39
5. La puerta estelar 03:37
6. Vida después de la vida 04:40
7. Noche de concierto 04:06
8. La misión 04:14
9. Sin compasión 04:51
10. Sueño roto 03:57
11. Afortunado 03:54
12. Aterrizaje (duet) 04:39
13. Embrujada (version 2) 04:17
14. Noche de concierto (duet) 04:04
15. Sueño roto (duet) 03:58
******************************
Total playing time: 1:03:51



Extended info
Pascual Balaguer Drums
Sergi Balaguer Guitars
Henry Unknown
Borja Unknown
Sofía Gómez Vocals


Technical info
(IMG:https://metalarea.org/images/spectrogram/2022_Jun/27dd8e3792ca62e43ff9c675d018229b.png)
Input File: 07 - Noche de Concierto.mp3
Channels : 2
Sample Rate : 44100
Precision : 16-bit
Duration : 00:04:06.09 = 10852569 samples = 18456.8 CDDA sectors
File Size : 9.85M
Bit Rate : 320k
Sample Encoding: MPEG audio (layer I, II or III)
Comments :
Title=Noche de Concierto
Artist=Anunnaki
Album=Aterrizaje
Tracknumber=7
Year=2022



Register


Go to the top of the page
  Insert nick Quick quote
+Quote Post
 
Start new topic
Replies (1 - 1)
post Jul 20 2022, 18:41:41
Post #2

Перевозчик
**************
Group: Металариец
Posts: 3,437
Releases: 0
On Forums: 14 years 1 month
Thanks: 763 time(s)
Russian Federation


Вот это жесть!
Go to the top of the page
  Insert nick Quick quote
+Quote Post

Reply to this topicStart new topic
1 User(s) are reading this topic (1 Guests and 0 Anonymous Users)
0 Members:

 



- Lo-Fi Version Support form
Copyrights and abuse reports form
Time is now: 17th August 2022 - 09:03:13