Welcome Guest ( Log In | Register )

> Releases Upload / Добавление релизов

Добавить релиз тут / Click here to add release
Рекомендованные обменники / Recommended file shares

 
Reply to this topicStart new topic
> Ánima Trece - Evolution (2022), Heavy Metal
post Jun 22 2022, 19:58:50
Post #1

Правь статус, ####!111
**************
Group: Металариец
Posts: 29,685
Releases: 21836
From: Г.Харьков
On Forums: 10 years 1 month
Thanks: 452823 time(s)
Unknown


(IMG:https://metalarea.org/images/audiocovers/2022_Jun/acov_tid366355_thumb.jpg)

*Artist: Ánima Trece
*Album: Evolution
*Year: 2022
*Genre: Heavy Metal
*Country: Spain (IMG:https://metalarea.org/forum/style_images/flags/Spain.png)
*Format: mp3@CBR320kbps
*Size: 89MB

Tracklist:
1. Intro 01:21
2. Irreversible 04:43
3. Espiral 04:55
4. Involución 06:27
5. Solo debería jugar 06:47
6. Es mi fin 04:49
7. Eutanasia 05:24
8. Vive el momento 04:30
******************************
Total playing time: 38:56




Extended info
Pablo Fernández Bass
José Manuel Drums, Vocals (additional)
José Luis Guitars
Miguel Ángel Sares Guitars, Keyboards
Enrique González Vocals


Technical info
(IMG:https://metalarea.org/images/spectrogram/2022_Jun/ec11a2285c5e97b75f665800b0709b16.png)
Input File: 07 - Eutanasia.mp3
Channels : 2
Sample Rate : 44100
Precision : 16-bit
Duration : 00:05:24.83 = 14324871 samples = 24362 CDDA sectors
File Size : 13.0M
Bit Rate : 320k
Sample Encoding: MPEG audio (layer I, II or III)
Comments :
Title=Eutanasia
Artist=Anima Trece
Album=Evolution
Tracknumber=7
Year=2022



Register


Go to the top of the page
  Insert nick Quick quote
+Quote Post

Reply to this topicStart new topic
1 User(s) are reading this topic (1 Guests and 0 Anonymous Users)
0 Members:

 



- Lo-Fi Version Support form
Copyrights and abuse reports form
Time is now: 7th July 2022 - 11:26:18