Welcome Guest ( Log In | Register )

> Releases Upload / Добавление релизов

Добавить релиз тут / Click here to add release
Рекомендованные обменники / Recommended file shares

> Elvira's Curse - Sacrilege (2022), Heavy Metal
post Jun 22 2022, 20:25:03
Post #1

Правь статус, ####!111
**************
Group: Металариец
Posts: 29,685
Releases: 21836
From: Г.Харьков
On Forums: 10 years 1 month
Thanks: 452823 time(s)
Unknown


(IMG:https://metalarea.org/images/audiocovers/2022_Jun/acov_tid366357_thumb.jpg)

*Artist: Elvira's Curse
*Album: Sacrilege
*Year: 2022
*Genre: Heavy Metal
*Country: United States (IMG:https://metalarea.org/forum/style_images/flags/United%20States.png)
*Format: mp3@CBR320kbps
*Size: 91MB

Tracklist:
1. The King's Waltz
2. Hang and Rot
3. Death Not Taken
4. Burn With Me
5. Not My God
6. Dehumanize
7. Sacrilege
8. Lesbian Nation
9. Pet Sematary (Ramones cover)
10. Eye of the Witch
******************************
Total playing time: 40:02



Extended info
D.J. Poling Drums
See also: Phoenix Down
Ozzy Addams Vocals, Guitars, Bass
See also: Phoenix Down, ex-Melting Myth


Technical info
(IMG:https://metalarea.org/images/spectrogram/2022_Jun/d8d8332cbdd5535b8f70feaa746548fe.png)
Input File: 07 - Sacrilege.mp3
Channels : 2
Sample Rate : 44100
Precision : 16-bit
Duration : 00:07:52.53 = 20838661 samples = 35439.9 CDDA sectors
File Size : 18.9M
Bit Rate : 320k
Sample Encoding: MPEG audio (layer I, II or III)
Comments :
Title=Sacrilege
Artist=Elvira's Curse
Album=Sacrilege
Tracknumber=7
Year=2022



Register


Go to the top of the page
  Insert nick Quick quote
+Quote Post
 
Start new topic
Replies (1 - 1)
post Jun 23 2022, 13:55:58
Post #2

Правь статус, ####!111
**************
Group: Металариец
Posts: 51,011
Releases: 935
On Forums: 13 years 1 month
Thanks: 47699 time(s)
Russian Federation


Обложка угарная (IMG:style_emoticons/default/15.gif)

Где то я видел ужо изображения этой кошечки...Вроде мульт какой то с нею был или чот такое...
Go to the top of the page
  Insert nick Quick quote
+Quote Post

Reply to this topicStart new topic
2 User(s) are reading this topic (2 Guests and 0 Anonymous Users)
0 Members:

 



- Lo-Fi Version Support form
Copyrights and abuse reports form
Time is now: 7th July 2022 - 11:19:16