Welcome Guest ( Log In | Register )

> Releases Upload / Добавление релизов

Добавить релиз тут / Click here to add release
Рекомендованные обменники / Recommended file shares

 
Reply to this topicStart new topic
> Aeternam - Beneath The Nightfall [single] (2022), Symphonic/Folk/Death Metal (D5)
post Jun 22 2022, 22:05:14
Post #1

MDM-Thrash Metal
**************
Group: Металариец
Posts: 11,207
Releases: 1527
From: Одесса
On Forums: 14 years 10 months
Thanks: 36273 time(s)
Ukraine


(IMG:http://metalarea.org/images/audiocovers/2022_Jun/acov_tid366360_thumb.jpg)

*Artist: Aeternam
*Album: Beneath The Nightfall [single]
*Year: 2022
*Genre: Symphonic/Folk/Death Metal
*Country: Canada (IMG:http://metalarea.org/forum/style_images/flags/Canada.png)
*Format: mp3@CBR320kbps
*Size: 12MB

Tracklist:
1. Beneath the Nightfall 05:12
******************************
Total playing time: 5:12



(IMG:http://metalarea.org/images/youtube.png)

Extended info
Antoine Guertin Drums, Percussion, Vocals, Samples (2007-present)
See also: Contemplator, ex-Southern Cross
Achraf Loudiy Vocals, Guitars (2007-present)
Mathieu Roy-Lortie Guitars (lead) (2021-present)
See also: From Dying Suns, Nearly Dead Kreatures
Hubert Gonthier Blouin Bass (2022-present)
See also: ex-Eyeless


Technical info
(IMG:http://metalarea.org/images/spectrogram/2022_Jun/8ab6daddc325df53e4259f257270fa00.png)
Input File: Aeternam - Beneath The Nightfall.mp3
Channels : 2
Sample Rate : 44100
Precision : 16-bit
Duration : 00:05:12.72 = 13790952 samples = 23454 CDDA sectors
File Size : 12.8M
Bit Rate : 327k
Sample Encoding: MPEG audio (layer I, II or III)
Comments :
Title=Beneath The Nightfall
Artist=Aeternam
Album=Beneath The Nightfall (Single)
Tracknumber=01
Year=2022
Genre=Symphonic Death Metal



Register


Go to the top of the page
  Insert nick Quick quote
+Quote Post

Reply to this topicStart new topic
2 User(s) are reading this topic (2 Guests and 0 Anonymous Users)
0 Members:

 



- Lo-Fi Version Support form
Copyrights and abuse reports form
Time is now: 7th July 2022 - 10:55:03