Welcome Guest ( Log In | Register )

> Paxtilence - Wildfire (2022), Old School Thrash Metal
post Jun 22 2022, 22:43:42
Post #1

Правь статус, ####!111
**************
Group: Металариец
Posts: 30,923
Releases: 22794
From: Г.Харьков
On Forums: 10 years 6 months
Thanks: 477015 time(s)
Unknown


(IMG:https://metalarea.org/images/audiocovers/2022_Jun/acov_tid366361_thumb.jpg)

*Artist: Paxtilence
*Album: Wildfire
*Year: 2022
*Genre: Old School Thrash Metal
*Country: Germany (IMG:https://metalarea.org/forum/style_images/flags/Germany.png)
*Format: mp3@CBR320kbps
*Size: 72MB

Tracklist:
1. Wildfire 02:51
2. Estrangement 04:09
3. Last Words 03:14
4. The Blood 04:00
5. The Paxtilence 02:58
6. Radiation Sickness 03:14
7. Damnation 05:54
8. Born of Ashes 04:26
******************************
Total playing time: 30:46




Extended info
Benni Bass
See also: Svarta Faran
Mende Drums
Alex Guitars
See also: ex-Torpëdo
Tobi Guitars, Vocals (2011-present)


Technical info
(IMG:https://metalarea.org/images/spectrogram/2022_Jun/71eaeb9df537e1a4af864f9a7918a3f9.png)
Input File: Paxtilence - Wildfire - 07 Damnation.mp3
Channels : 2
Sample Rate : 44100
Precision : 16-bit
Duration : 00:05:55.05 = 15657661 samples = 26628.7 CDDA sectors
File Size : 14.4M
Bit Rate : 324k
Sample Encoding: MPEG audio (layer I, II or III)
Comments :
Title=Damnation
Artist=Paxtilence
Album=Wildfire
Tracknumber=7
Year=2022



Register


Go to the top of the page
  Insert nick Quick quote
+Quote Post
 
Start new topic
Replies (1 - 7)
post Jun 23 2022, 12:43:53
Post #2

Правь статус, ####!111
**************
Group: Металариец
Posts: 30,923
Releases: 22794
From: Г.Харьков
On Forums: 10 years 6 months
Thanks: 477015 time(s)
Unknown


FLAC (Tracks) 389 mb
Register


Thanks:
Go to the top of the page
  Insert nick Quick quote
+Quote Post
post Jun 23 2022, 14:23:50
Post #3
BAN
RO till
Dec 7 2022, 19:26:25



Заурядная качёвая трэшка.
Go to the top of the page
  Insert nick Quick quote
+Quote Post
post Jun 23 2022, 14:26:59
Post #4

Правь статус, ####!111
**************
Group: Металариец
Posts: 51,960
Releases: 957
On Forums: 13 years 6 months
Thanks: 48774 time(s)
Russian Federation


Лицо на обложке напоминает Рутгера Хауэра (IMG:style_emoticons/default/25.gif)
Go to the top of the page
  Insert nick Quick quote
+Quote Post
post Jun 23 2022, 14:32:15
Post #5
BAN
RO till
Dec 7 2022, 19:26:25



ЦИТАТА(vosmidesijatye @ Jun 23 2022, 14:26:59) *
Лицо на обложке напоминает Рутгера Хауэра (IMG:style_emoticons/default/25.gif)

Скорее Клинта Иствуда.


Thanks:
Go to the top of the page
  Insert nick Quick quote
+Quote Post
post Jun 26 2022, 14:44:38
Post #6

Два Литра
**
Group: Завсегдатай
Posts: 188
Releases: 0
On Forums: 2 years 6 days
Thanks: 93 time(s)
Germany


Этот жанр мертв, и они ничего не изменят в этом.
Go to the top of the page
  Insert nick Quick quote
+Quote Post
post Jun 26 2022, 15:05:58
Post #7

Правь статус, ####!111
**************
Group: Металариец
Posts: 30,923
Releases: 22794
From: Г.Харьков
On Forums: 10 years 6 months
Thanks: 477015 time(s)
Unknown


ЦИТАТА(MAPhilosopher @ Jun 26 2022, 14:44:38) *
Этот жанр мертв, и они ничего не изменят в этом.

глупо считать что кто либо из музыкантов с тобой согласится и бросится реанимировать его.
Думаю что просто ребята играют только для того что им нравится этим заниматься (IMG:style_emoticons/default/bye.gif)
Go to the top of the page
  Insert nick Quick quote
+Quote Post
post Jun 26 2022, 15:46:17
Post #8

Два Литра
**
Group: Завсегдатай
Posts: 188
Releases: 0
On Forums: 2 years 6 days
Thanks: 93 time(s)
Germany


QUOTE(Samaritianin @ Jun 26 2022, 16:05:58) *
глупо считать что кто либо из музыкантов с тобой согласится и бросится реанимировать его.
Думаю что просто ребята играют только для того что им нравится этим заниматься (IMG:style_emoticons/default/bye.gif)

Просто скучно и посредственно. (IMG:style_emoticons/default/bye.gif)
Go to the top of the page
  Insert nick Quick quote
+Quote Post

Reply to this topicStart new topic
2 User(s) are reading this topic (2 Guests and 0 Anonymous Users)
0 Members:

 



- Lo-Fi Version Support form
Copyrights and abuse reports form
Time is now: 3rd December 2022 - 17:28:08