Welcome Guest ( Log In | Register )

> Releases Upload / Добавление релизов

Добавить релиз тут / Click here to add release
Рекомендованные обменники / Recommended file shares

> Batlord - Depressive & Aggressive [ep] (2022), Black Metal
post Jun 23 2022, 04:14:20
Post #1

Правь статус, ####!111
**************
Group: Металариец
Posts: 3,236
Releases: 1744
On Forums: 11 years 8 months
Thanks: 33899 time(s)
Russian Federation


(IMG:https://metalarea.org/images/audiocovers/2022_Jun/acov_tid366362_thumb.jpg)

*Artist: Batlord
*Album: Depressive & Aggressive [ep]
*Year: 2022
*Genre: Black Metal
*Country: United States (IMG:https://metalarea.org/forum/style_images/flags/United%20States.png)
*Format: mp3@CBR320kbps
*Size: 43MB

Tracklist:
1.Nothing / No One 05:02
2.They Come At Night 02:47
3.Endless Obsidian 04:53
4.Bear The Mark 03:02
******************************
Total playing time: 15:44



Technical info
(IMG:https://metalarea.org/images/spectrogram/2022_Jun/29949a70a6dc0d897b25f2eec12283b2.png)
Input File: 02 They Come At Night.mp3
Channels : 2
Sample Rate : 44100
Precision : 16-bit
Duration : 00:02:47.88 = 7403288 samples = 12590.6 CDDA sectors
File Size : 6.94M
Bit Rate : 331k
Sample Encoding: MPEG audio (layer I, II or III)
Comments :
Title=They Come At Night
Artist=Batlord
Album=Depressive & Aggressive
Tracknumber=02
Year=2022
Genre=Black Metal



Register


Go to the top of the page
  Insert nick Quick quote
+Quote Post
 
Start new topic
Replies (1 - 2)
post Jun 23 2022, 15:14:55
Post #2

Семь Литров
*******
Group: Металариец
Posts: 758
Releases: 15
From: Brasil - Sao Paulo
On Forums: 2 years 3 months
Thanks: 636 time(s)
Brazil


This is nice!
Go to the top of the page
  Insert nick Quick quote
+Quote Post
post Jun 23 2022, 15:55:23
Post #3

Мегаманьяк
***********
Group: Металариец
Posts: 1,575
Releases: 301
On Forums: 3 years 6 months
Thanks: 4598 time(s)
Canada


This is the real batlord logo

https://www.metal-archives.com/images/1/8/4...4_logo.png?4011
Go to the top of the page
  Insert nick Quick quote
+Quote Post

Reply to this topicStart new topic
2 User(s) are reading this topic (2 Guests and 0 Anonymous Users)
0 Members:

 



- Lo-Fi Version Support form
Copyrights and abuse reports form
Time is now: 17th August 2022 - 08:13:51