Welcome Guest ( Log In | Register )

> Releases Upload / Добавление релизов

Добавить релиз тут / Click here to add release
Рекомендованные обменники / Recommended file shares

 
Reply to this topicStart new topic
> Probenation - Invasion [ep] (2022), Heavy/Power Metal
post Jun 23 2022, 04:33:28
Post #1

Правь статус, ####!111
**************
Group: Металариец
Posts: 2,985
Releases: 1518
On Forums: 11 years 7 months
Thanks: 29867 time(s)
Russian Federation


(IMG:https://metalarea.org/images/audiocovers/2022_Jun/acov_tid366363_thumb.jpg)

*Artist: Probenation
*Album: Invasion [ep]
*Year: 2022
*Genre: Heavy/Power Metal
*Country: United Kingdom (IMG:https://metalarea.org/forum/style_images/flags/United%20Kingdom.png)
*Format: mp3@CBR320kbps
*Size: 50MB

Tracklist:
1.Space Raiders 04:44
2.Invasion 04:05
3.Extraterrestrial Heart 05:09
4.Alcohol Abduction 02:38
5.ProbeNation 05:34
******************************
Total playing time: 22:10



Technical info
(IMG:https://metalarea.org/images/spectrogram/2022_Jun/a6386094dd8d1c2ecf74fb87b7071d11.png)
Input File: 4.Alcohol Abduction.mp3
Channels : 2
Sample Rate : 44100
Precision : 16-bit
Duration : 00:02:38.58 = 6993158 samples = 11893.1 CDDA sectors
File Size : 6.48M
Bit Rate : 327k
Sample Encoding: MPEG audio (layer I, II or III)
Comments :
Title=Alcohol Abduction
Artist=ProbeNation
Album=Invasion
Tracknumber=04
Year=2022
Genre=Metal



Register


Go to the top of the page
  Insert nick Quick quote
+Quote Post

Reply to this topicStart new topic
2 User(s) are reading this topic (2 Guests and 0 Anonymous Users)
0 Members:

 



- Lo-Fi Version Support form
Copyrights and abuse reports form
Time is now: 7th July 2022 - 11:32:43