Welcome Guest ( Log In | Register )

> Releases Upload / Добавление релизов

Добавить релиз тут / Click here to add release
Рекомендованные обменники / Recommended file shares

> Acanthosis - Scriptures Of The Accursed (2022), Technical/Melodic Death Metal
post Jun 23 2022, 05:00:02
Post #1

Правь статус, ####!111
**************
Group: Металариец
Posts: 3,236
Releases: 1744
On Forums: 11 years 8 months
Thanks: 33899 time(s)
Russian Federation


(IMG:https://metalarea.org/images/audiocovers/2022_Jun/acov_tid366364_thumb.jpg)

*Artist: Acanthosis
*Album: Scriptures Of The Accursed
*Year: 2022
*Genre: Technical/Melodic Death Metal
*Country: Canada (IMG:https://metalarea.org/forum/style_images/flags/Canada.png)
*Format: mp3@CBR320kbps
*Size: 75MB

Tracklist:
1.Thirst of Knowledge 04:36
2.Deep Scarlet, Chapter I; Impertinent Worship 03:35
3.Deep Scarlet, Chapter II; Terraria Now Resides Basking in Red 02:58
4.The Deep Beckons 04:15
5.The Hallowed Balance, Chapter I; The Amaranthine Decay of Abhorrence 03:34
6.The Hallowed Balance, Chapter II; The Cursed Dryad 04:19
7.Intrenched Affliction 04:17
8.Moonfall 05:25
******************************
Total playing time: 32:59



Technical info
(IMG:https://metalarea.org/images/spectrogram/2022_Jun/53df6797fb1b6cede515b359bca08199.png)
Input File: 03. Deep Scarlet, Chapter II; Terraria Now Resides Basking in Red.mp3
Channels : 2
Sample Rate : 44100
Precision : 16-bit
Duration : 00:02:58.37 = 7866117 samples = 13377.8 CDDA sectors
File Size : 7.14M
Bit Rate : 320k
Sample Encoding: MPEG audio (layer I, II or III)
Comments :
Title=Deep Scarlet, Chapter II; Terraria Now Resides Basking in Red
Artist=Acanthosis
Album=Scriptures of the Accursed
Tracknumber=03
Year=2022
Genre=Technical/Melodic Death Metal



Register


Go to the top of the page
  Insert nick Quick quote
+Quote Post
 
Start new topic
Replies (1 - 1)
post Jul 24 2022, 17:41:45
Post #2

Old School Metal
**************
Group: Металариец
Posts: 4,535
Releases: 0
From: г. Минск
On Forums: 13 years 4 months
Thanks: 11939 time(s)
Belarus


Lossless: FLAC (tracks)
Register


Thanks:
(1) AHBAnep,
Go to the top of the page
  Insert nick Quick quote
+Quote Post

Reply to this topicStart new topic
1 User(s) are reading this topic (1 Guests and 0 Anonymous Users)
0 Members:

 



- Lo-Fi Version Support form
Copyrights and abuse reports form
Time is now: 17th August 2022 - 08:05:13