Welcome Guest ( Log In | Register )

 
Reply to this topicStart new topic
> Jumalhauta - Varjoissa (2022), Black/Death/Doom Metal
post Jun 23 2022, 07:18:07
Post #1

MDM-Thrash Metal
**************
Group: Металариец
Posts: 11,375
Releases: 1581
From: Одесса
On Forums: 15 years 1 month
Thanks: 37387 time(s)
Ukraine


(IMG:http://metalarea.org/images/audiocovers/2022_Jun/acov_tid366365.jpg)

*Artist: Jumalhauta
*Album: Varjoissa
*Year: 2022
*Genre: Black/Death/Doom Metal
*Country: Finland (IMG:http://metalarea.org/forum/style_images/flags/Finland.png)
*Format: mp3@CBR320kbps
*Size: 67MB

Tracklist:
1. Intro
2. Kalmanto
3. Aika
4. Uhrilahja
5. Varjoissa
6. Ilman Kuolemaa
7. Jääneito
8. Veri
9. Aurinko
******************************
Total playing time: 29:34



(IMG:http://metalarea.org/images/youtube.png)

Extended info
Sami Sarlin Drum programming, Guitars, Bass, Vocals (2018-present)
See also: Break of Dusk, DeathRot, Path of the Fallen, Spurgu, ex-For the Crown, Surujuhla
Atte Pylväs Guitars, Bass, Vocals (2018-present)
See also: DeathRot, Spurgu, ex-Joyful Rape, ex-For the Crown, Surujuhla


Technical info
(IMG:http://metalarea.org/images/spectrogram/2022_Jun/a72084a9fa4238a5501470e76dd90233.png)
Input File: 02 - Kalmanto.mp3
Channels : 2
Sample Rate : 44100
Precision : 16-bit
Duration : 00:03:16.09 = 8647525 samples = 14706.7 CDDA sectors
File Size : 7.85M
Bit Rate : 320k
Sample Encoding: MPEG audio (layer I, II or III)
Comments :
Title=Kalmanto
Artist=Jumalhauta
Album=Varjoissa
Tracknumber=2
Year=2022



Register


Go to the top of the page
  Insert nick Quick quote
+Quote Post

Reply to this topicStart new topic
1 User(s) are reading this topic (1 Guests and 0 Anonymous Users)
0 Members:

 



- Lo-Fi Version Support form
Copyrights and abuse reports form
Time is now: 25th September 2022 - 05:59:52