Welcome Guest ( Log In | Register )

> Releases Upload / Добавление релизов

Добавить релиз тут / Click here to add release
Рекомендованные обменники / Recommended file shares

> Misgivings - Misgivings (2022), Death Metal
post Jun 23 2022, 09:59:09
Post #1

Правь статус, ####!111
**************
Group: Металариец
Posts: 29,686
Releases: 21836
From: Г.Харьков
On Forums: 10 years 1 month
Thanks: 452826 time(s)
Unknown


(IMG:https://metalarea.org/images/audiocovers/2022_Jun/acov_tid366366_thumb.jpg)

*Artist: Misgivings
*Album: Misgivings
*Year: 2022
*Genre: Death Metal
*Country: France (IMG:https://metalarea.org/forum/style_images/flags/France.png)
*Format: mp3@CBR320kbps
*Size: 78MB

Tracklist:
1. Deny the Divine Praise 04:38
2. Demonically Stigmatized 04:19
3. Masquerading as God 03:25
4. Stormblood 03:43
5. Disgraceful Lust 04:19
6. The Age of Christic Sorrow 03:49
7. Serenity in Shades 02:50
8. Supreme Regression 03:10
9. Ancient Fear 04:09
******************************
Total playing time: 34:22




Extended info
Guilehm Auge Drums
Infamist Guitars
David B. Guitars
Esteban Martin Vocals, Bass


Technical info
(IMG:https://metalarea.org/images/spectrogram/2022_Jun/324bd20b2302718ad6f1080f67f5f008.png)
Input File: 09. Acient Fear.mp3
Channels : 2
Sample Rate : 44100
Precision : 16-bit
Duration : 00:04:05.52 = 10827212 samples = 18413.6 CDDA sectors
File Size : 9.82M
Bit Rate : 320k
Sample Encoding: MPEG audio (layer I, II or III)
Comments :
Title=Acient Fear
Artist=Misgivings
Album=Misgivings
Tracknumber=09
Year=2022
Genre=Death



Register


Go to the top of the page
  Insert nick Quick quote
+Quote Post
 
Start new topic
Replies (1 - 2)
post Jun 24 2022, 00:37:33
Post #2

Правь статус, ####!111
**************
Group: Металариец
Posts: 29,686
Releases: 21836
From: Г.Харьков
On Forums: 10 years 1 month
Thanks: 452826 time(s)
Unknown


FLAC (Tracks) 239 mb
Register


Go to the top of the page
  Insert nick Quick quote
+Quote Post
post Jun 24 2022, 14:19:11
Post #3

Семь Литров
*******
Group: Металариец
Posts: 729
Releases: 0
From: Нижний Новгород
On Forums: 15 years 11 months
Thanks: 303 time(s)
Russian Federation


Маньяки! :HMR
Go to the top of the page
  Insert nick Quick quote
+Quote Post

Reply to this topicStart new topic
2 User(s) are reading this topic (2 Guests and 0 Anonymous Users)
0 Members:

 



- Lo-Fi Version Support form
Copyrights and abuse reports form
Time is now: 7th July 2022 - 12:09:23