Welcome Guest ( Log In | Register )

> Releases Upload / Добавление релизов

Добавить релиз тут / Click here to add release
Рекомендованные обменники / Recommended file shares

> Fallen Sanctuary - Terranova (2022), Melodic Power Metal
post Jun 23 2022, 11:45:28
Post #1

Serial Uploader
Group Icon
Group: V.I.P
Posts: 38,613
Releases: 36751
From: Lithuania
On Forums: 14 years 4 weeks
Thanks: 456112 time(s)
Lithuania


(IMG:https://metalarea.org/images/audiocovers/2022_Jun/acov_tid366368_thumb.jpg)

*Artist: Fallen Sanctuary
*Album: Terranova
*Year: 2022
*Genre: Melodic Power Metal
*Country: Austria (IMG:https://metalarea.org/forum/style_images/flags/Austria.png)
*Format: mp3@CBR320kbps
*Size: 145MB

Tracklist:
01. Terranova 04:12
02. Now and Forever 04:50
03. Broken Dreams 04:12
04. Rise Against the World 04:53
05. To the Top 04:15
06. Destiny 04:40
07. I Can't Stay 03:42
08. Trail of Destruction 04:34
09. No Rebirth 03:52
10. Bound to Our Legacy 04:23
11. Wait for Me (Bonus Track) 04:15
12. Now and Forever (Instrumental Version) 04:50
13. Rise Against the World (Instrumental Version) 04:53
14. To the Top (Instrumental Version) 04:15
******************************
Total playing time: 1:01:46


Preview 2
(IMG:https://metalarea.org/images/youtube.png)

Technical info
(IMG:https://metalarea.org/images/spectrogram/2022_Jun/0456e5a46b451f1967d2e92bf9e95fa3.png)
Input File: 02 - Now and Forever.mp3
Channels : 2
Sample Rate : 44100
Precision : 16-bit
Duration : 00:04:50.00 = 12789000 samples = 21750 CDDA sectors
File Size : 11.8M
Bit Rate : 327k
Sample Encoding: MPEG audio (layer I, II or III)
Comments :
Title=Now and Forever
Artist=Fallen Sanctuary
Album=Terranova
Tracknumber=2
Year=2022-06-24
Genre=Rock
Discnumber=1



Register


Go to the top of the page
  Insert nick Quick quote
+Quote Post
 
Start new topic
Replies (1 - 4)
post Jun 23 2022, 14:10:01
Post #2

Восемь Литров
********
Group: Металариец
Posts: 836
Releases: 0
From: Sweden
On Forums: 13 years 3 months
Thanks: 29 time(s)
Sweden


Thank you.
Go to the top of the page
  Insert nick Quick quote
+Quote Post
post Jun 23 2022, 16:26:07
Post #3

Четыре Литра
****
Group: Металариец
Posts: 342
Releases: 0
From: Харбин
On Forums: 3 years 10 months
Thanks: 359 time(s)
Unknown


Вокалист Serenity, если что...
Go to the top of the page
  Insert nick Quick quote
+Quote Post
post Jun 23 2022, 18:15:02
Post #4

грызущие вместе
******
Group: Металариец
Posts: 591
Releases: 0
From: Moscow/MO
On Forums: 15 years 8 months
Thanks: 206 time(s)
Russian Federation


ЦИТАТА(unit731 @ Jun 23 2022, 18:26:07) *
Вокалист Serenity, если что...
Да, по названию проекта и стране можно было понять (IMG:style_emoticons/default/smile1.gif)
Go to the top of the page
  Insert nick Quick quote
+Quote Post
post Jun 23 2022, 19:44:24
Post #5

Тридцать лет на борту "Тяжёлого" крейсера
**************
Group: Металариец
Posts: 2,887
Releases: 0
From: Питер
On Forums: 15 years 3 weeks
Thanks: 904 time(s)
Russian Federation


насквозь проштампованный мажорный пауэр
фоном норм, не больше
Go to the top of the page
  Insert nick Quick quote
+Quote Post

Reply to this topicStart new topic
2 User(s) are reading this topic (2 Guests and 0 Anonymous Users)
0 Members:

 



- Lo-Fi Version Support form
Copyrights and abuse reports form
Time is now: 7th July 2022 - 12:35:06