Welcome Guest ( Log In | Register )

> Releases Upload / Добавление релизов

Добавить релиз тут / Click here to add release
Рекомендованные обменники / Recommended file shares

> Werewolves - From The Cave To The Grave (2022), Technical Black/Death Metal (D5)
post Jun 23 2022, 12:00:04
Post #1

Правь статус, ####!111
**************
Group: Металариец
Posts: 29,954
Releases: 22044
From: Г.Харьков
On Forums: 10 years 3 months
Thanks: 458705 time(s)
Unknown


(IMG:https://metalarea.org/images/audiocovers/2022_Jun/acov_tid366369_thumb.jpg)

*Artist: Werewolves
*Album: From The Cave To The Grave
*Year: 2022
*Genre: Technical Black/Death Metal
*Country: Australia (IMG:https://metalarea.org/forum/style_images/flags/Australia.png)
*Format: mp3@CBR320kbps
*Size: 81MB

Tracklist:
1. Self-Help Book-Burning 04:59
2. We Are Better than You 03:43
3. All the Better to Eat You With 02:42
4. Crushing Heaven's Mandate 03:47
5. Harvest of the Skulls 04:42
6. Oedipus Tyrannus 03:38
7. Nuclear Family Holocaust 03:32
8. Pride and Extreme Prejudice 03:54
9. Watch Your Mouth 03:34
******************************
Total playing time: 34:31




Extended info
David Haley Drums
Matt Wilcock Guitars
Sam Bean Vocals, Bass


Technical info
(IMG:https://metalarea.org/images/spectrogram/2022_Jun/e58779999636cb349091ca0fe35f2125.png)
Input File: 09 - Watch Your Mouth.mp3
Channels : 2
Sample Rate : 44100
Precision : 16-bit
Duration : 00:03:34.00 = 9437400 samples = 16050 CDDA sectors
File Size : 8.70M
Bit Rate : 325k
Sample Encoding: MPEG audio (layer I, II or III)
Comments :
Title=Watch Your Mouth
Artist=Werewolves
Album=From the Cave to the Grave
Tracknumber=9
Year=2022-06-24
Genre=Metal
Discnumber=1



Register


Go to the top of the page
  Insert nick Quick quote
+Quote Post
 
Start new topic
Replies (1 - 3)
post Jun 24 2022, 10:29:21
Post #2

Мегаманьяк
***********
Group: Металариец
Posts: 1,740
Releases: 1
From: APATIN, SERBIA, АПАТИН, СЕРБИЯ
On Forums: 14 years 9 months
Thanks: 5180 time(s)



Flac

Register


Go to the top of the page
  Insert nick Quick quote
+Quote Post
post Jun 26 2022, 14:44:02
Post #3

0%Tolerance
**************
Group: Металариец
Posts: 2,059
Releases: 0
On Forums: 9 years 11 months
Thanks: 425 time(s)
Unknown


Жирное, кайфовое рубилово. По концовке, правда, слегонца уже подъз[мат->бан]ывает. (IMG:style_emoticons/default/1488.gif)
Go to the top of the page
  Insert nick Quick quote
+Quote Post
post Jun 26 2022, 18:28:11
Post #4

Два Литра
**
Group: Завсегдатай
Posts: 183
Releases: 0
On Forums: 1 year 8 months
Thanks: 93 time(s)
Germany


Technical... (IMG:style_emoticons/default/1488.gif)
Здесь нет ничего Black/Death.
Go to the top of the page
  Insert nick Quick quote
+Quote Post

Reply to this topicStart new topic
1 User(s) are reading this topic (1 Guests and 0 Anonymous Users)
0 Members:

 



- Lo-Fi Version Support form
Copyrights and abuse reports form
Time is now: 17th August 2022 - 12:26:38