Welcome Guest ( Log In | Register )

> Releases Upload / Добавление релизов

Добавить релиз тут / Click here to add release
Рекомендованные обменники / Recommended file shares

> Victorius - Dinosaur Warfare Pt. 2 – The Great Ninja War (2022), Power Metal (D9)
post Jun 23 2022, 12:05:17
Post #1

Serial Uploader
Group Icon
Group: V.I.P
Posts: 38,611
Releases: 36751
From: Lithuania
On Forums: 14 years 4 weeks
Thanks: 456112 time(s)
Lithuania


(IMG:https://metalarea.org/images/audiocovers/2022_Jun/acov_tid366370_thumb.jpg)

*Artist: Victorius
*Album: Dinosaur Warfare Pt. 2 – The Great Ninja War
*Year: 2022
*Genre: Power Metal
*Country: Germany (IMG:https://metalarea.org/forum/style_images/flags/Germany.png)
*Format: mp3@CBR320kbps
*Size: 118MB

Tracklist:
01. Saurus Invictus Lazerus 01:16
02. Victorious Dinogods 04:46
03. Mighty Magic Mammoth 04:18
04. Jurassic Jetfighters 04:05
05. Dinos and Dragons 04:52
06. Katana Kingdom Rising 04:14
07. God of Roar 03:17
08. Night of the Nuclear Ninja 03:51
09. Triceps Ceratops 03:35
10. Tyrannosaurus Steel 04:08
11. Shadow of the Shinobi 03:39
12. Powerzord 04:16
13. Mighty Magic Mammoth (radio edit) 04:01
******************************
Total playing time: 50:18

(IMG:https://metalarea.org/images/myspace.png)

Preview 3
(IMG:https://metalarea.org/images/youtube.png)

Technical info
(IMG:https://metalarea.org/images/spectrogram/2022_Jun/5fbac36a4d4207ec6d3980dca334ffc8.png)
Input File: 02 - Victorious Dinogods.mp3
Channels : 2
Sample Rate : 44100
Precision : 16-bit
Duration : 00:04:46.00 = 12612600 samples = 21450 CDDA sectors
File Size : 11.6M
Bit Rate : 326k
Sample Encoding: MPEG audio (layer I, II or III)
Comments :
Title=Victorious Dinogods
Artist=Victorius
Album=Dinosaur Warfare Pt. 2 – The Great Ninja War
Tracknumber=2
Year=2022-06-24
Discnumber=1



Register


Go to the top of the page
  Insert nick Quick quote
+Quote Post
 
Start new topic
Replies (1 - 3)
post Jun 23 2022, 14:08:27
Post #2

Восемь Литров
********
Group: Металариец
Posts: 836
Releases: 0
From: Sweden
On Forums: 13 years 3 months
Thanks: 29 time(s)
Sweden


Thank you.
Go to the top of the page
  Insert nick Quick quote
+Quote Post
post Jun 23 2022, 15:22:56
Post #3

Семь Литров
*******
Group: Металариец
Posts: 703
Releases: 0
On Forums: 13 years 1 day
Thanks: 179 time(s)
Ukraine


Спасибо зав новый альбом!!
Go to the top of the page
  Insert nick Quick quote
+Quote Post
post Jul 3 2022, 19:01:23
Post #4

MDM-Thrash Metal
**************
Group: Металариец
Posts: 11,207
Releases: 1527
From: Одесса
On Forums: 14 years 10 months
Thanks: 36273 time(s)
Ukraine


Go to the top of the page
  Insert nick Quick quote
+Quote Post

Reply to this topicStart new topic
2 User(s) are reading this topic (2 Guests and 0 Anonymous Users)
0 Members:

 



- Lo-Fi Version Support form
Copyrights and abuse reports form
Time is now: 7th July 2022 - 12:02:18