Welcome Guest ( Log In | Register )

> Releases Upload / Добавление релизов

Добавить релиз тут / Click here to add release
Рекомендованные обменники / Recommended file shares

> Darkane - Inhuman Spirits (2022), Melodic Death/Thrash Metal (D)
post Jun 23 2022, 12:11:34
Post #1

Правь статус, ####!111
**************
Group: Металариец
Posts: 29,685
Releases: 21836
From: Г.Харьков
On Forums: 10 years 1 month
Thanks: 452823 time(s)
Unknown


(IMG:https://metalarea.org/images/audiocovers/2022_Jun/acov_tid366372_thumb.jpg)

*Artist: Darkane
*Album: Inhuman Spirits
*Year: 2022
*Genre: Melodic Death/Thrash Metal
*Country: Sweden (IMG:https://metalarea.org/forum/style_images/flags/Sweden.png)
*Format: mp3@CBR320kbps
*Size: 101MB

Tracklist:
1. Inhuman Spirits 04:42
2. Awakening 04:58
3. Embrace the Flames 03:47
4. Conspiracies of the Flesh 03:55
5. Inhaling Mental Chaos 04:06
6. Mansion of Torture 05:31
7. The Quintessence of Evil 05:44
8. A Spiral to Nothing 04:57
9. The Great Deceiver 04:03
10. Vålnader 01:35
******************************
Total playing time: 43:18



Extended info
Jörgen Löfberg Bass
Peter Wildoer Drums
Klas Ideberg Guitars
Christofer Malmström Guitars
Lawrence Mackrory Vocals



Technical info
(IMG:https://metalarea.org/images/spectrogram/2022_Jun/632073df8ecd7a1846e88d5e4481e16c.png)
Input File: 07 - The Quintessence Of Evil.mp3
Channels : 2
Sample Rate : 44100
Precision : 16-bit
Duration : 00:05:43.00 = 15126300 samples = 25725 CDDA sectors
File Size : 13.8M
Bit Rate : 322k
Sample Encoding: MPEG audio (layer I, II or III)
Comments :
Title=The Quintessence Of Evil
Artist=Darkane
Album=Inhuman Spirits
Tracknumber=7
Year=2022-06-24
Genre=Rock
Discnumber=1



Register


Go to the top of the page
  Insert nick Quick quote
+Quote Post
 
Start new topic
Replies (1 - 3)
post Jun 23 2022, 14:05:27
Post #2

Восемь Литров
********
Group: Металариец
Posts: 836
Releases: 0
From: Sweden
On Forums: 13 years 3 months
Thanks: 29 time(s)
Sweden


Thank you.
Go to the top of the page
  Insert nick Quick quote
+Quote Post
post Jun 23 2022, 15:56:48
Post #3

Old School Metal
**************
Group: Металариец
Posts: 4,458
Releases: 0
From: г. Минск
On Forums: 13 years 3 months
Thanks: 11578 time(s)
Belarus


Lossless: FLAC (tracks)
Register


Go to the top of the page
  Insert nick Quick quote
+Quote Post
post Jun 23 2022, 19:55:05
Post #4

Тридцать лет на борту "Тяжёлого" крейсера
**************
Group: Металариец
Posts: 2,887
Releases: 0
From: Питер
On Forums: 15 years 3 weeks
Thanks: 904 time(s)
Russian Federation


Единственные, что сегодня порадовали
Нормальная крепкая работа, современная, разноплановая
Go to the top of the page
  Insert nick Quick quote
+Quote Post

Reply to this topicStart new topic
1 User(s) are reading this topic (1 Guests and 0 Anonymous Users)
0 Members:

 



- Lo-Fi Version Support form
Copyrights and abuse reports form
Time is now: 7th July 2022 - 10:59:53