Welcome Guest ( Log In | Register )

> Releases Upload / Добавление релизов

Добавить релиз тут / Click here to add release
Рекомендованные обменники / Recommended file shares

> Black Rose - WTF (2022), Heavy Metal (D10)
post Jun 23 2022, 12:32:07
Post #1

Serial Uploader
Group Icon
Group: V.I.P
Posts: 38,720
Releases: 36861
From: Lithuania
On Forums: 14 years 2 months
Thanks: 458347 time(s)
Lithuania


(IMG:https://metalarea.org/images/audiocovers/2022_Jun/acov_tid366376_thumb.jpg)

*Artist: Black Rose
*Album: WTF
*Year: 2022
*Genre: Heavy Metal
*Country: United Kingdom (IMG:https://metalarea.org/forum/style_images/flags/United%20Kingdom.png)
*Format: mp3@CBR320kbps
*Size: 129MB

Tracklist:
01. Crazy Mental Bad 04:43
02. Devils Candy 05:50
03. WTF 04:54
04. Pain 05:50
05. Innocence 03:22
06. Detonator 04:51
07. Under My Skin 04:46
08. Twist the Knife 02:56
09. Tattoos & Lipstick 04:03
10. Never Take Me Alive 04:30
11. Broken 05:48
12. Armageddon 04:16
******************************
Total playing time: 55:49

(IMG:https://metalarea.org/images/myspace.png)


Technical info
(IMG:https://metalarea.org/images/spectrogram/2022_Jun/c2fe336f73c3c674466386d8516139fe.png)
Input File: 02 - Devils Candy.mp3
Channels : 2
Sample Rate : 44100
Precision : 16-bit
Duration : 00:05:50.00 = 15435000 samples = 26250 CDDA sectors
File Size : 14.2M
Bit Rate : 324k
Sample Encoding: MPEG audio (layer I, II or III)
Comments :
Title=Devils Candy
Artist=Black Rose
Album=WTF
Tracknumber=2
Year=2022-06-24
Discnumber=1



Register


Go to the top of the page
  Insert nick Quick quote
+Quote Post
 
Start new topic
Replies (1 - 3)
post Jun 23 2022, 15:22:13
Post #2

Семь Литров
*******
Group: Металариец
Posts: 721
Releases: 0
On Forums: 13 years 1 month
Thanks: 182 time(s)
Ukraine


Спасибо за новый альбом!!!
Go to the top of the page
  Insert nick Quick quote
+Quote Post
post Jun 23 2022, 16:17:14
Post #3

Common dweller of hell
**************
Group: Металариец
Posts: 4,340
Releases: 12
From: Dnipro
On Forums: 14 years 4 weeks
Thanks: 1719 time(s)
Ukraine


Go to the top of the page
  Insert nick Quick quote
+Quote Post
post Jun 24 2022, 06:00:41
Post #4

Group: Дух
Posts: 1
Releases: 0
On Forums: 1 month 2 weeks
Thanks: 0 time(s)
Mexico


Very Much thanks
Go to the top of the page
  Insert nick Quick quote
+Quote Post

Reply to this topicStart new topic
1 User(s) are reading this topic (1 Guests and 0 Anonymous Users)
0 Members:

 



- Lo-Fi Version Support form
Copyrights and abuse reports form
Time is now: 11th August 2022 - 00:55:27