Welcome Guest ( Log In | Register )

> Releases Upload / Добавление релизов

Добавить релиз тут / Click here to add release
Рекомендованные обменники / Recommended file shares

 
Reply to this topicStart new topic
> Knoll - Metempiric (2022), Grindcore
post Jun 23 2022, 12:42:10
Post #1

Serial Uploader
Group Icon
Group: V.I.P
Posts: 38,748
Releases: 36887
From: Lithuania
On Forums: 14 years 2 months
Thanks: 458819 time(s)
Lithuania


(IMG:https://metalarea.org/images/audiocovers/2022_Jun/acov_tid366378_thumb.jpg)

*Artist: Knoll
*Album: Metempiric
*Year: 2022
*Genre: Grindcore
*Country: United States (IMG:https://metalarea.org/forum/style_images/flags/United%20States.png)
*Format: mp3@CBR320kbps
*Size: 81MB

Tracklist:
01. Clepsydra 2:29
02. Felled Plume 2:02
03. Throe of Upheaval 2:19
04. Burgeoning Pillars 1:23
05. Dislimned 1:40
06. Gild of Blotted Lucre 1:40
07. Tether and Swine 2:17
08. Of Troth to Atom 3:52
09. Marred Alb 1:44
10. Flux of Knowing 1:53
11. The Dwelt Withe 0:53
12. Whelm 3:02
13. Tome 8:17
******************************
Total playing time: 33:31


Preview 2

(IMG:https://metalarea.org/images/youtube.png)

Technical info
(IMG:https://metalarea.org/images/spectrogram/2022_Jun/b37af9331b3f84880012599bbbebe546.png)
Input File: 02. Felled Plume.mp3
Channels : 2
Sample Rate : 44100
Precision : 16-bit
Duration : 00:02:02.00 = 5380244 samples = 9150.07 CDDA sectors
File Size : 5.06M
Bit Rate : 332k
Sample Encoding: MPEG audio (layer I, II or III)
Comments :
Title=Felled Plume
Artist=Knoll
Album=Metempiric
Tracknumber=2
Year=2022
Discnumber=1/1



Register


Go to the top of the page
  Insert nick Quick quote
+Quote Post

Reply to this topicStart new topic
1 User(s) are reading this topic (1 Guests and 0 Anonymous Users)
0 Members:

 



- Lo-Fi Version Support form
Copyrights and abuse reports form
Time is now: 17th August 2022 - 08:13:14