Welcome Guest ( Log In | Register )

> Releases Upload / Добавление релизов

Добавить релиз тут / Click here to add release
Рекомендованные обменники / Recommended file shares

> Milking The Goatmachine - Nach Uns Die Grindflut (2022), Death Metal/Grindcore
post Jun 23 2022, 12:53:00
Post #1

Serial Uploader
Group Icon
Group: V.I.P
Posts: 38,720
Releases: 36861
From: Lithuania
On Forums: 14 years 2 months
Thanks: 458352 time(s)
Lithuania


(IMG:https://metalarea.org/images/audiocovers/2022_Jun/acov_tid366379_thumb.jpg)

*Artist: Milking The Goatmachine
*Album: Nach Uns Die Grindflut
*Year: 2022
*Genre: Death Metal/Grindcore
*Country: Germany (IMG:https://metalarea.org/forum/style_images/flags/Germany.png)
*Format: mp3@CBR320kbps
*Size: 101MB

Tracklist:
01. Piccolo im Streichelzoo 02:10
02. Kackeball 04:05
03. Rettet den Wald...esst mehr Biber 03:14
04. Raus mit die Viecher 03:42
05. Am Zaun der Zeit 02:44
06. Ein Stall am Wörthersee 03:29
07. Stallhalla 03:41
08. Waddema 00:39
09. Ein Brett im Kornfeld 03:19
10. Ist der Huf erst ruiniert 02:46
11. Mutter der Mann mit der Milch ist da 03:09
12. Warum liegt hier Stroh 02:53
13. Magermilch Mambo 02:53
14. Nach uns die Grindflut 03:47
******************************
Total playing time: 42:31

(IMG:https://metalarea.org/images/myspace.png)

(IMG:https://metalarea.org/images/youtube.png)

Technical info
(IMG:https://metalarea.org/images/spectrogram/2022_Jun/f9cbdd6c0f51ff2335323c8d123de3aa.png)
Input File: 02. Kackeball.mp3
Channels : 2
Sample Rate : 44100
Precision : 16-bit
Duration : 00:04:05.00 = 10804500 samples = 18375 CDDA sectors
File Size : 10.0M
Bit Rate : 327k
Sample Encoding: MPEG audio (layer I, II or III)
Comments :
Title=Kackeball
Artist=Milking the Goatmachine
Album=Nach uns die Grindflut
Tracknumber=2
Year=2022
Genre=Death Metal, Crust
Discnumber=1



Register


Go to the top of the page
  Insert nick Quick quote
+Quote Post
 
Start new topic
Replies (1 - 1)
post Jun 24 2022, 10:21:59
Post #2

Мегаманьяк
***********
Group: Металариец
Posts: 1,738
Releases: 1
From: APATIN, SERBIA, АПАТИН, СЕРБИЯ
On Forums: 14 years 9 months
Thanks: 5172 time(s)



Flac

Register


Thanks:
Go to the top of the page
  Insert nick Quick quote
+Quote Post

Reply to this topicStart new topic
1 User(s) are reading this topic (1 Guests and 0 Anonymous Users)
0 Members:

 



- Lo-Fi Version Support form
Copyrights and abuse reports form
Time is now: 11th August 2022 - 09:24:31