Welcome Guest ( Log In | Register )

> Releases Upload / Добавление релизов

Добавить релиз тут / Click here to add release
Рекомендованные обменники / Recommended file shares

> Intoxicated - Watch You Burn (2022), Thrash/Death Metal (D6)
post Jun 23 2022, 12:57:39
Post #1

Правь статус, ####!111
**************
Group: Металариец
Posts: 29,934
Releases: 22027
From: Г.Харьков
On Forums: 10 years 3 months
Thanks: 458190 time(s)
Unknown


(IMG:https://metalarea.org/images/audiocovers/2022_Jun/acov_tid366380_thumb.jpg)

*Artist: Intoxicated
*Album: Watch You Burn
*Year: 2022
*Genre: Thrash/Death Metal
*Country: United States (IMG:https://metalarea.org/forum/style_images/flags/United%20States.png)
*Format: mp3@CBR320kbps
*Size: 74MB

Tracklist:
1. Assholian Mode 03:23
2. Grovel 02:28
3. Watch You Burn 03:22
4. Legacy's Demise 02:52
5. Majestic Eyes 03:18
6. Force Fed 03:03
7. Dumpster Dive 03:17
8. Revelation Denied 03:29
9. Analyze 02:48
10. Inevitable End 03:55
******************************
Total playing time: 31:55




Extended info
Gregg Roberts Bass, Vocals (backing)
Mike Radford Drums
John Sutton Guitars
Erik Payne Guitars, Vocals (lead)


Technical info
(IMG:https://metalarea.org/images/spectrogram/2022_Jun/06f3169b3e100f6f56e7f8b1d9a6ac05.png)
Input File: 07 - Dumpster Dive.mp3
Channels : 2
Sample Rate : 44100
Precision : 16-bit
Duration : 00:03:17.00 = 8687700 samples = 14775 CDDA sectors
File Size : 8.05M
Bit Rate : 327k
Sample Encoding: MPEG audio (layer I, II or III)
Comments :
Title=Dumpster Dive
Artist=Intoxicated
Album=Watch You Burn
Tracknumber=7
Year=2022-06-24
Genre=Alternative
Discnumber=1



Register


Go to the top of the page
  Insert nick Quick quote
+Quote Post
 
Start new topic
Replies (1 - 1)
post Jul 5 2022, 15:08:56
Post #2

добрый мизантроп
**************
Group: Металариец
Posts: 3,100
Releases: 1
From: Менск
On Forums: 11 years 8 months
Thanks: 1370 time(s)
Madagascar


Nice one, old school riffs and anger
Go to the top of the page
  Insert nick Quick quote
+Quote Post

Reply to this topicStart new topic
1 User(s) are reading this topic (1 Guests and 0 Anonymous Users)
0 Members:

 



- Lo-Fi Version Support form
Copyrights and abuse reports form
Time is now: 11th August 2022 - 01:18:04