Welcome Guest ( Log In | Register )

> Releases Upload / Добавление релизов

Добавить релиз тут / Click here to add release
Рекомендованные обменники / Recommended file shares

> Instigate - Unheeded Warnings Of Decay (2022), Death Metal
post Jun 23 2022, 13:12:05
Post #1

Правь статус, ####!111
**************
Group: Металариец
Posts: 29,686
Releases: 21836
From: Г.Харьков
On Forums: 10 years 1 month
Thanks: 452826 time(s)
Unknown


(IMG:https://metalarea.org/images/audiocovers/2022_Jun/acov_tid366381_thumb.jpg)

*Artist: Instigate
*Album: Unheeded Warnings Of Decay
*Year: 2022
*Genre: Death Metal
*Country: International (IMG:https://metalarea.org/forum/style_images/flags/International.png)
*Format: mp3@CBR320kbps
*Size: 83MB

Tracklist:
1. Witness of the End Times 05:07
2. Haruspex 04:46
3. Liturgy of Emptiness 03:39
4. Atonement 04:07
5. Indoctrinated Reborn 04:18
6. Obliteration 03:52
7. Resurrection Denied 03:30
8. Embrace the End 02:42
9. Seeds of Cain 03:18
******************************
Total playing time: 35:19




Extended info
Italy / USA

Riccardo Rogari Bass
See also: Bloodtruth, Forhekset, ex-Hellraiser, ex-Axegrinder
Kevin Talley Drums
See also: 13 Dead, Busted Guts, Criminal Element, Embrace the Dawn, Feared, Grot, Snipers of Babel, Sylencer, The Bastard Within, Dååth, ex-Horror of Horrors, ex-Nothnegal, Born of the Storm, ex-Castrofate, ex-Consumned, ex-Decrepit Birth, ex-Dying Fetus, ex-Implore, ex-Martyred, ex-Misery Index, ex-Power Concept, ex-Six Feet Under, ex-Suffocation, ex-Them, ex-Truth Devoid, ex-WretchedPain, ex-Absence of the Sacred (live), ex-Battlecross (live), ex-Cattle Decapitation (live), ex-DevilDriver (live), ex-Hate Eternal (live), ex-M.O.D. (live), ex-The Black Dahlia Murder (live), ex-The Red Chord (live), ex-Chimaira, ex-Worlds Divide, ex-All the Way to the Bank, ex-Gath, ex-Knuckle Deep
Stefano Rossi Ciucci Guitars
See also: Bloodtruth, Orve, Vomit the Soul, ex-Devouring Hatred, ex-Five Hundred Murders, ex-Palingenesys
Stefano Borciani Vocals
See also: Demiurgon, Xenofaction, ex-Hatred


Technical info
(IMG:https://metalarea.org/images/spectrogram/2022_Jun/33a26a88ce8cc6030b6056cd377cbd84.png)
Input File: 05. Indoctrinated Reborn.mp3
Channels : 2
Sample Rate : 44100
Precision : 16-bit
Duration : 00:04:17.00 = 11333700 samples = 19275 CDDA sectors
File Size : 10.5M
Bit Rate : 328k
Sample Encoding: MPEG audio (layer I, II or III)
Comments :
Title=Indoctrinated Reborn
Artist=Instigate
Album=Unheeded Warnings of Decay
Tracknumber=5
Year=2022-06-24
Genre=Alternative
Discnumber=1



Register


Go to the top of the page
  Insert nick Quick quote
+Quote Post
 
Start new topic
Replies (1 - 3)
post Jun 23 2022, 14:13:30
Post #2

Восемь Литров
********
Group: Металариец
Posts: 836
Releases: 0
From: Sweden
On Forums: 13 years 3 months
Thanks: 29 time(s)
Sweden


Thank you.
Go to the top of the page
  Insert nick Quick quote
+Quote Post
post Jun 24 2022, 00:47:16
Post #3

Правь статус, ####!111
**************
Group: Металариец
Posts: 29,686
Releases: 21836
From: Г.Харьков
On Forums: 10 years 1 month
Thanks: 452826 time(s)
Unknown


FLAC (Tracks) 295 mb
Register


Thanks:
(1) Storky,
Go to the top of the page
  Insert nick Quick quote
+Quote Post
post Today, 08:18:12
Post #4

добрый мизантроп
**************
Group: Металариец
Posts: 3,020
Releases: 1
From: Менск
On Forums: 11 years 7 months
Thanks: 1337 time(s)
Madagascar


(IMG:style_emoticons/default/m0821.gif)
Go to the top of the page
  Insert nick Quick quote
+Quote Post

Reply to this topicStart new topic
2 User(s) are reading this topic (1 Guests and 1 Anonymous Users)
0 Members:

 



- Lo-Fi Version Support form
Copyrights and abuse reports form
Time is now: 7th July 2022 - 11:51:06