Welcome Guest ( Log In | Register )

> Releases Upload / Добавление релизов

Добавить релиз тут / Click here to add release
Рекомендованные обменники / Recommended file shares

> Hats Barn - Y​.​a​.​HW​.​e​.​H (2022), Black Metal (D)
post Jun 23 2022, 13:38:47
Post #1

Правь статус, ####!111
**************
Group: Металариец
Posts: 3,196
Releases: 1709
On Forums: 11 years 8 months
Thanks: 33361 time(s)
Russian Federation


(IMG:https://metalarea.org/images/audiocovers/2022_Jun/acov_tid366382_thumb.jpg)

*Artist: Hats Barn
*Album: Y​.​a​.​HW​.​e​.​H
*Year: 2022
*Genre: Black Metal
*Country: France (IMG:https://metalarea.org/forum/style_images/flags/France.png)
*Format: mp3@CBR320kbps
*Size: 105MB

Tracklist:
1.Opening - Ten Psalms Of Death And Khaos 02:37
2.Baal-Zebub 04:53
3.YHWH 02:10
4.In Nomine Leprosy 04:06
5.Under the pillars of daath 04:09
6.Total Death Kult 05:47
7.Walpurgis of Seth 03:12
8.Absence of faith 04:36
9.Que le sang coule dans les fleuves 04:16
10.The man returns to dust 06:44
******************************
Total playing time: 42:30



Technical info
(IMG:https://metalarea.org/images/spectrogram/2022_Jun/6a73915e9b20bd45337a16d481fb48d5.png)
Input File: 07 - L'enfant doit mourir.mp3
Channels : 2
Sample Rate : 44100
Precision : 16-bit
Duration : 00:03:13.22 = 8520782 samples = 14491.1 CDDA sectors
File Size : 7.96M
Bit Rate : 329k
Sample Encoding: MPEG audio (layer I, II or III)
Comments :
Title=L'enfant doit mourir
Artist=Hats Barn
Album=Y.a.HW.e.H
Tracknumber=07
Year=2022
Genre=Black Metal



Register


Go to the top of the page
  Insert nick Quick quote
+Quote Post
 
Start new topic
Replies (1 - 1)
post Jun 23 2022, 20:01:14
Post #2

Правь статус, ####!111
**************
Group: Металариец
Posts: 51,245
Releases: 941
On Forums: 13 years 2 months
Thanks: 48016 time(s)
Russian Federation


Daale, как те?
Go to the top of the page
  Insert nick Quick quote
+Quote Post

Reply to this topicStart new topic
1 User(s) are reading this topic (1 Guests and 0 Anonymous Users)
0 Members:

 



- Lo-Fi Version Support form
Copyrights and abuse reports form
Time is now: 11th August 2022 - 00:18:25