Welcome Guest ( Log In | Register )

> Releases Upload / Добавление релизов

Добавить релиз тут / Click here to add release
Рекомендованные обменники / Recommended file shares

> Perpetual Night - Aconitum (2022), Melodic Death Metal (D4)
post Jun 23 2022, 13:51:54
Post #1

Правь статус, ####!111
**************
Group: Металариец
Posts: 29,686
Releases: 21836
From: Г.Харьков
On Forums: 10 years 1 month
Thanks: 452826 time(s)
Unknown


(IMG:https://metalarea.org/images/audiocovers/2022_Jun/acov_tid366383_thumb.jpg)

*Artist: Perpetual Night
*Album: Aconitum
*Year: 2022
*Genre: Melodic Death Metal
*Country: Spain (IMG:https://metalarea.org/forum/style_images/flags/Spain.png)
*Format: mp3@CBR320kbps
*Size: 102MB

Tracklist:
1. Aconitum
2. Rotten Bond
3. Antimatter
4. Hierbas Amargas
5. Stars Hunter
6. Silver Key
7. Redemption
8. Dry Land
******************************
Total playing time: 43:29




Extended info
Raúl Ríos Beiro Guitars, Vocals (backing) (2012-present)
See also: ex-Deathillusion
Carlos Garrido Bass (2015-present)
See also: ex-Deathillusion
Luis Rodriguez Drums (2019-present)
See also: Sexton's Orchids
Javier Rodríguez Guitars (2021-present)
See also: Sexton's Orchids
Leo Gonzalez Vocals (2021-present)
See also: ex-Canker


Technical info
(IMG:https://metalarea.org/images/spectrogram/2022_Jun/e6f27ebf10409128a6ecdd5e04299c9a.png)
Input File: 05 - Perpetual Night - Stars Hunter.mp3
Channels : 2
Sample Rate : 44100
Precision : 16-bit
Duration : 00:05:34.26 = 14740778 samples = 25069.4 CDDA sectors
File Size : 13.7M
Bit Rate : 328k
Sample Encoding: MPEG audio (layer I, II or III)
Comments :
Title=Stars Hunter
Artist=Perpetual Night
Album=Aconitum
Tracknumber=5/8
Year=2022
Discnumber=1/1



Register


Go to the top of the page
  Insert nick Quick quote
+Quote Post
 
Start new topic
Replies (1 - 4)
post Jun 23 2022, 18:41:54
Post #2

Тридцать лет на борту "Тяжёлого" крейсера
**************
Group: Металариец
Posts: 2,887
Releases: 0
From: Питер
On Forums: 15 years 3 weeks
Thanks: 904 time(s)
Russian Federation


не сказать, что паршиво, но и особенно не вставляет материал, хотя задатки у пацанов есть
может, к следующему альбому и родят что более толковое
Go to the top of the page
  Insert nick Quick quote
+Quote Post
post Jul 2 2022, 17:54:04
Post #3

MDM-Thrash Metal
**************
Group: Металариец
Posts: 11,207
Releases: 1527
From: Одесса
On Forums: 14 years 10 months
Thanks: 36273 time(s)
Ukraine


По сравнению с тонной хрени, которая выходит в последнее время, то данный опус еще более менее.
Go to the top of the page
  Insert nick Quick quote
+Quote Post
post Jul 2 2022, 18:32:10
Post #4

Пять Литров
*****
Group: Металариец
Posts: 489
Releases: 10
From: Суворов
On Forums: 4 years 5 months
Thanks: 148 time(s)
Russian Federation


да чо вы ребят, офигенный альбом!
Go to the top of the page
  Insert nick Quick quote
+Quote Post
post Yesterday, 15:26:00
Post #5

добрый мизантроп
**************
Group: Металариец
Posts: 3,020
Releases: 1
From: Менск
On Forums: 11 years 7 months
Thanks: 1337 time(s)
Madagascar


1. Aconitum
2. Rotten Bond
3. Antimatter
6. Silver Key
одни из лучших воршипов на ДТ

8. Dry Land - не плохой финский мелодум, остальное шлак

Go to the top of the page
  Insert nick Quick quote
+Quote Post

Reply to this topicStart new topic
2 User(s) are reading this topic (2 Guests and 0 Anonymous Users)
0 Members:

 



- Lo-Fi Version Support form
Copyrights and abuse reports form
Time is now: 7th July 2022 - 11:44:18