Welcome Guest ( Log In | Register )

> Releases Upload / Добавление релизов

Добавить релиз тут / Click here to add release
Рекомендованные обменники / Recommended file shares

> Scorching Tomb - Rotting Away [ep] (2022), Death Metal
post Jun 23 2022, 13:53:11
Post #1

Правь статус, ####!111
**************
Group: Металариец
Posts: 3,238
Releases: 1744
On Forums: 11 years 8 months
Thanks: 33903 time(s)
Russian Federation


(IMG:https://metalarea.org/images/audiocovers/2022_Jun/acov_tid366384_thumb.jpg)

*Artist: Scorching Tomb
*Album: Rotting Away [ep]
*Year: 2022
*Genre: Death Metal
*Country: Canada (IMG:https://metalarea.org/forum/style_images/flags/Canada.png)
*Format: mp3@CBR320kbps
*Size: 47MB

Tracklist:
1.Warpath 03:22
2.Bloodlust Sacrifice 04:19
3.Rotting Away 03:24
4.Only Death Remains 03:57
5.Skin Ripper 05:05
******************************
Total playing time: 20:07



Technical info
(IMG:https://metalarea.org/images/spectrogram/2022_Jun/e97899325b4d04d0aab164a05c91f0d5.png)
Input File: 01. Warpath.mp3
Channels : 2
Sample Rate : 44100
Precision : 16-bit
Duration : 00:03:22.23 = 8918255 samples = 15167.1 CDDA sectors
File Size : 8.19M
Bit Rate : 324k
Sample Encoding: MPEG audio (layer I, II or III)
Comments :
Title=Warpath
Artist=Scorching Tomb
Album=Rotting Away
Tracknumber=1
Year=2022
Discnumber=1/1



Register


Go to the top of the page
  Insert nick Quick quote
+Quote Post
 
Start new topic
Replies (1 - 1)
post Jun 24 2022, 10:07:43
Post #2

Мегаманьяк
***********
Group: Металариец
Posts: 1,740
Releases: 1
From: APATIN, SERBIA, АПАТИН, СЕРБИЯ
On Forums: 14 years 9 months
Thanks: 5180 time(s)



Flac

Register


Thanks:
Go to the top of the page
  Insert nick Quick quote
+Quote Post

Reply to this topicStart new topic
1 User(s) are reading this topic (1 Guests and 0 Anonymous Users)
0 Members:

 



- Lo-Fi Version Support form
Copyrights and abuse reports form
Time is now: 17th August 2022 - 11:46:32