Welcome Guest ( Log In | Register )

> Releases Upload / Добавление релизов

Добавить релиз тут / Click here to add release
Рекомендованные обменники / Recommended file shares

> Pissrot - Piss.Vile.Gunk [ep] (2022), Old School Death Metal
post Jun 23 2022, 14:08:03
Post #1

Правь статус, ####!111
**************
Group: Металариец
Posts: 2,986
Releases: 1518
On Forums: 11 years 7 months
Thanks: 29873 time(s)
Russian Federation


(IMG:https://metalarea.org/images/audiocovers/2022_Jun/acov_tid366385_thumb.jpg)

*Artist: Pissrot
*Album: Piss.Vile.Gunk [ep]
*Year: 2022
*Genre: Old School Death Metal
*Country: United States (IMG:https://metalarea.org/forum/style_images/flags/United%20States.png)
*Format: mp3@CBR320kbps
*Size: 34MB

Tracklist:
1.Cripple Dismemberment 03:09
2.Gunk 01:27
3.Kidney Stone Slingshot 02:00
4.Pumped With Dope 04:04
5.Primal Harvest 02:18
******************************
Total playing time: 12:58



Technical info
(IMG:https://metalarea.org/images/spectrogram/2022_Jun/13489af81aed0530e214bf73a022b195.png)
Input File: 03. Kidney Stone Slingshot.mp3
Channels : 2
Sample Rate : 44100
Precision : 16-bit
Duration : 00:02:00.88 = 5330720 samples = 9065.85 CDDA sectors
File Size : 5.63M
Bit Rate : 372k
Sample Encoding: MPEG audio (layer I, II or III)
Comments :
Title=Kidney Stone Slingshot
Artist=Pissrot
Album=Piss.Vile.Gunk
Tracknumber=3/5
Year=2022
Discnumber=1/1



Register


Go to the top of the page
  Insert nick Quick quote
+Quote Post
 
Start new topic
Replies (1 - 2)
post Jun 24 2022, 00:21:18
Post #2
BAN
RO till
Jul 8 2022, 17:25:26



Это не металл. Тупо синтетика, созданная в программе.
Go to the top of the page
  Insert nick Quick quote
+Quote Post
post Jun 26 2022, 10:50:08
Post #3

Правь статус, ####!111
**************
Group: Металариец
Posts: 51,011
Releases: 935
On Forums: 13 years 1 month
Thanks: 47699 time(s)
Russian Federation


ЦИТАТА(kefka @ Jun 23 2022, 16:08:03) *
Piss.Vile.Gunk


Кагтавое пгоизношение Piss While Drunk (IMG:style_emoticons/default/25.gif)
Go to the top of the page
  Insert nick Quick quote
+Quote Post

Reply to this topicStart new topic
1 User(s) are reading this topic (1 Guests and 0 Anonymous Users)
0 Members:

 



- Lo-Fi Version Support form
Copyrights and abuse reports form
Time is now: 7th July 2022 - 12:43:50