Welcome Guest ( Log In | Register )

> Releases Upload / Добавление релизов

Добавить релиз тут / Click here to add release
Рекомендованные обменники / Recommended file shares

> First Degree Murder - Anomalous Hallucinations (2022), Brutal Death Metal
post Jun 23 2022, 14:12:51
Post #1

Serial Uploader
Group Icon
Group: V.I.P
Posts: 38,607
Releases: 36751
From: Lithuania
On Forums: 14 years 4 weeks
Thanks: 456112 time(s)
Lithuania


(IMG:https://metalarea.org/images/audiocovers/2022_Jun/acov_tid366386_thumb.jpg)

*Artist: First Degree Murder
*Album: Anomalous Hallucinations
*Year: 2022
*Genre: Brutal Death Metal
*Country: Chile (IMG:https://metalarea.org/forum/style_images/flags/Chile.png)
*Format: mp3@CBR320kbps
*Size: 47MB

Tracklist:
01. Anomalous Hallucinations 02:23
02. Oppositional Defiant 01:11
03. Generalized Disorder 02:11
04. First Degree Murder 02:23
05. The Virgin's Punishment 02:17
06. Dissolved in Acid 02:29
07. Congenital Disability 01:55
08. Kidnapped and Abused 01:57
09. Forced Intercourse 02:17
10. Unworthy Creature 01:02
******************************
Total playing time: 20:05


Preview 2
(IMG:https://metalarea.org/images/youtube.png)

Technical info
(IMG:https://metalarea.org/images/spectrogram/2022_Jun/d8fcc511e3545642e6ac598be15d0dfd.png)
Input File: 02. Oppositional Defiant.mp3
Channels : 2
Sample Rate : 44100
Precision : 16-bit
Duration : 00:01:11.50 = 3153326 samples = 5362.8 CDDA sectors
File Size : 2.96M
Bit Rate : 331k
Sample Encoding: MPEG audio (layer I, II or III)
Comments :
Title=Oppositional Defiant
Artist=First Degree Murder
Album=Anomalous Hallucinations
Tracknumber=2
Year=2022
Discnumber=1/1



Register


Go to the top of the page
  Insert nick Quick quote
+Quote Post
 
Start new topic
Replies (1 - 4)
post Jun 24 2022, 00:23:33
Post #2
BAN
RO till
Jul 8 2022, 17:25:26



Этот альбом надо в топ самого размазанного недометалла! Агрессия, мощная атака, плитообразный саунд - не, чуваки не слышали об этом, они начиная с 1986 года сидели в бункере!
Go to the top of the page
  Insert nick Quick quote
+Quote Post
post Jun 24 2022, 05:27:31
Post #3

королева бала
**********
Group: Металариец
Posts: 1,006
Releases: 0
On Forums: 15 years 2 months
Thanks: 697 time(s)
Russian Federation


Хороший альбом, мне понравился. Ускоренный Esophagus типа
Go to the top of the page
  Insert nick Quick quote
+Quote Post
post Jun 24 2022, 06:14:53
Post #4

hearer & reader
**************
Group: Металариец
Posts: 10,305
Releases: 211
From: Moscow
On Forums: 14 years 9 months
Thanks: 12536 time(s)
Russian Federation


Go to the top of the page
  Insert nick Quick quote
+Quote Post
post Jun 24 2022, 10:03:23
Post #5

Мегаманьяк
***********
Group: Металариец
Posts: 1,711
Releases: 1
From: APATIN, SERBIA, АПАТИН, СЕРБИЯ
On Forums: 14 years 8 months
Thanks: 5027 time(s)



Flac

Register


Thanks:
(1) Olethros,
Go to the top of the page
  Insert nick Quick quote
+Quote Post

Reply to this topicStart new topic
1 User(s) are reading this topic (1 Guests and 0 Anonymous Users)
0 Members:

 



- Lo-Fi Version Support form
Copyrights and abuse reports form
Time is now: 7th July 2022 - 10:52:45