Welcome Guest ( Log In | Register )

> Releases Upload / Добавление релизов

Добавить релиз тут / Click here to add release
Рекомендованные обменники / Recommended file shares

 
Reply to this topicStart new topic
> Serpent Spawn - Serpent Spawn [ep] (2022), Death Metal
post Jun 23 2022, 14:13:30
Post #1

Правь статус, ####!111
**************
Group: Металариец
Posts: 3,236
Releases: 1744
On Forums: 11 years 8 months
Thanks: 33901 time(s)
Russian Federation


(IMG:https://metalarea.org/images/audiocovers/2022_Jun/acov_tid366387_thumb.jpg)

*Artist: Serpent Spawn
*Album: Serpent Spawn [ep]
*Year: 2022
*Genre: Death Metal
*Country: Germany (IMG:https://metalarea.org/forum/style_images/flags/Germany.png)
*Format: mp3@CBR320kbps
*Size: 33MB

Tracklist:
1.Crypt Of Torment 02:58
2.Conquering The Trinity 03:44
3.Carnage Divine 03:53
4.Skinned And Gutted 03:41
******************************
Total playing time: 14:16



Extended info
Line up:
Martin Witchskinner (Blood) - vocal, guitar, bass
Rob Wenglorz (ex-Blood, ex-Dawn) - guitar
Markus Winterstein (Malaphar) - drums


Technical info
(IMG:https://metalarea.org/images/spectrogram/2022_Jun/007141f3737c158b08a6c368b3cb8f18.png)
Input File: 01. Crypt of Torment.mp3
Channels : 2
Sample Rate : 44100
Precision : 16-bit
Duration : 00:02:59.06 = 7896370 samples = 13429.2 CDDA sectors
File Size : 7.60M
Bit Rate : 340k
Sample Encoding: MPEG audio (layer I, II or III)
Comments :
Title=Crypt of Torment
Artist=Serpent Spawn
Album=Crypt of Torment
Tracknumber=1/4
Year=2022
Discnumber=1/1



Register


Go to the top of the page
  Insert nick Quick quote
+Quote Post
post Jun 24 2022, 10:01:41
Post #2

Мегаманьяк
***********
Group: Металариец
Posts: 1,740
Releases: 1
From: APATIN, SERBIA, АПАТИН, СЕРБИЯ
On Forums: 14 years 9 months
Thanks: 5180 time(s)



Flac

Register


Go to the top of the page
  Insert nick Quick quote
+Quote Post
post Jun 25 2022, 09:20:03
Post #3

Три Литра
***
Group: Завсегдатай
Posts: 253
Releases: 0
On Forums: 12 years 8 months
Thanks: 84 time(s)
Russian Federation


Так себе, до BLOOD далеко.
Go to the top of the page
  Insert nick Quick quote
+Quote Post
post Jul 6 2022, 13:58:47
Post #4

добрый мизантроп
**************
Group: Металариец
Posts: 3,109
Releases: 1
From: Менск
On Forums: 11 years 9 months
Thanks: 1379 time(s)
Madagascar


Fine Classic DM
Go to the top of the page
  Insert nick Quick quote
+Quote Post

Reply to this topicStart new topic
1 User(s) are reading this topic (1 Guests and 0 Anonymous Users)
0 Members:

 



- Lo-Fi Version Support form
Copyrights and abuse reports form
Time is now: 17th August 2022 - 08:55:09