Welcome Guest ( Log In | Register )

> Releases Upload / Добавление релизов

Добавить релиз тут / Click here to add release
Рекомендованные обменники / Recommended file shares

> Human Barbecue - Red Sun Rising (2022), Brutal Death Metal (D8)
post Jun 23 2022, 14:44:32
Post #1

Serial Uploader
Group Icon
Group: V.I.P
Posts: 38,608
Releases: 36751
From: Lithuania
On Forums: 14 years 4 weeks
Thanks: 456112 time(s)
Lithuania


(IMG:https://metalarea.org/images/audiocovers/2022_Jun/acov_tid366388_thumb.jpg)

*Artist: Human Barbecue
*Album: Red Sun Rising
*Year: 2022
*Genre: Brutal Death Metal
*Country: Belgium (IMG:https://metalarea.org/forum/style_images/flags/Belgium.png)
*Format: mp3@CBR320kbps
*Size: 81MB

Tracklist:
01. Barbaric Annihilation 02:58
02. Hatchet Homicide 03:46
03. Hanged, Drawn, and Quartered 03:32
04. Ravenous Swarm 04:23
05. Sacrificial Engorgement 03:24
06. Amazonian Predatory Frenzy 03:45
07. Digested by Savages 03:27
08. Gorging on Sacrifices 02:40
09. Red Sun Rising 04:14
10. Sickening Hunger 02:35
******************************
Total playing time: 34:44


Preview 2

(IMG:https://metalarea.org/images/youtube.png)

Technical info
(IMG:https://metalarea.org/images/spectrogram/2022_Jun/511d1f59d5014359d3d47d70466abe2b.png)
Input File: 02. Hatchet Homicide.mp3
Channels : 2
Sample Rate : 44100
Precision : 16-bit
Duration : 00:03:46.45 = 9986225 samples = 16983.4 CDDA sectors
File Size : 9.21M
Bit Rate : 325k
Sample Encoding: MPEG audio (layer I, II or III)
Comments :
Title=Hatchet Homicide
Artist=Human Barbecue
Album=Red Sun Rising
Tracknumber=2
Year=2022
Discnumber=1/1



Register


Go to the top of the page
  Insert nick Quick quote
+Quote Post
 
Start new topic
Replies (1 - 3)
post Jun 24 2022, 00:20:41
Post #2
BAN
RO till
Jul 8 2022, 17:25:26



Обезжиренное жужжалити. Громче гитары здесь звучат даже скрипы пальцев об струны, что говорит о новичковом уровне. ДР опять же, ниже плинтуса. Все в лучших традициях "брутала" 2020-х.
Go to the top of the page
  Insert nick Quick quote
+Quote Post
post Jun 24 2022, 05:29:18
Post #3

королева бала
**********
Group: Металариец
Posts: 1,006
Releases: 0
On Forums: 15 years 2 months
Thanks: 697 time(s)
Russian Federation


Два предыдущих у них куда лучше были, этот совсем мимо
Go to the top of the page
  Insert nick Quick quote
+Quote Post
post Jun 24 2022, 10:00:03
Post #4

Мегаманьяк
***********
Group: Металариец
Posts: 1,711
Releases: 1
From: APATIN, SERBIA, АПАТИН, СЕРБИЯ
On Forums: 14 years 8 months
Thanks: 5027 time(s)



Flac

Register
Go to the top of the page
  Insert nick Quick quote
+Quote Post

Reply to this topicStart new topic
1 User(s) are reading this topic (1 Guests and 0 Anonymous Users)
0 Members:

 



- Lo-Fi Version Support form
Copyrights and abuse reports form
Time is now: 7th July 2022 - 11:21:54