Welcome Guest ( Log In | Register )

> Releases Upload / Добавление релизов

Добавить релиз тут / Click here to add release
Рекомендованные обменники / Recommended file shares

> Serpents Oath - Ascension (2022), Black Metal
post Jun 23 2022, 15:06:34
Post #1

Serial Uploader
Group Icon
Group: V.I.P
Posts: 38,608
Releases: 36751
From: Lithuania
On Forums: 14 years 4 weeks
Thanks: 456112 time(s)
Lithuania


(IMG:https://metalarea.org/images/audiocovers/2022_Jun/acov_tid366389_thumb.jpg)

*Artist: Serpents Oath
*Album: Ascension
*Year: 2022
*Genre: Black Metal
*Country: Belgium (IMG:https://metalarea.org/forum/style_images/flags/Belgium.png)
*Format: mp3@CBR320kbps
*Size: 97MB

Tracklist:
01. Invocation Pestum 00:40
02. Summoning the Ancients 04:37
03. Thy Mighty Serpent 05:27
04. Invocation Perversum 00:51
05. Blasphemy 03:52
06. Bring Down the Sun 04:56
07. Invocation Maledictum 00:36
08. Sworn to the Oath 04:53
09. Of Fang and Claw 03:58
10. Invocation Infectum 00:34
11. Death the Destroyer 05:08
12. Blood Moon 05:54
******************************
Total playing time: 41:26


Preview 2
(IMG:https://metalarea.org/images/youtube.png)

Technical info
(IMG:https://metalarea.org/images/spectrogram/2022_Jun/9ae31912433a45d540a40d891ee5236e.png)
Input File: 02 - Summoning the Ancients.mp3
Channels : 2
Sample Rate : 44100
Precision : 16-bit
Duration : 00:04:37.00 = 12215700 samples = 20775 CDDA sectors
File Size : 11.2M
Bit Rate : 324k
Sample Encoding: MPEG audio (layer I, II or III)
Comments :
Title=Summoning the Ancients
Artist=Serpents Oath
Album=Ascension
Tracknumber=2
Year=2022-06-24
Genre=Metal
Discnumber=1



Register


Go to the top of the page
  Insert nick Quick quote
+Quote Post
 
Start new topic
Replies (1 - 4)
post Jun 23 2022, 18:42:29
Post #2

Литр
*
Group: Подсевший
Posts: 51
Releases: 0
On Forums: 13 years 2 months
Thanks: 116 time(s)
Russian Federation


thanks upload excellent release cheers!!!!!
Go to the top of the page
  Insert nick Quick quote
+Quote Post
post Jun 24 2022, 00:53:50
Post #3

Правь статус, ####!111
**************
Group: Металариец
Posts: 7,720
Releases: 165
From: URUGUAY
On Forums: 15 years 9 months
Thanks: 24340 time(s)
Uruguay


320
Register


Thanks:
Go to the top of the page
  Insert nick Quick quote
+Quote Post
post Jun 24 2022, 12:30:23
Post #4

Group: Подсевший
Posts: 29
Releases: 0
On Forums: 3 years 4 weeks
Thanks: 10 time(s)
Unknown


Достойный альбом: трушный, мелодичный, скоростной, без соплей. Парни явно вдохновляются шведским блеком. Местами явно проскальзывает Мардук, но без их фирменной суппостатской долбежности и хаоса. Примечательно , что в группе играют три скинхеда не первой молодости и свежести. Молодцы, парни, так держать Blasphemy!!!!!!
Go to the top of the page
  Insert nick Quick quote
+Quote Post
post Jun 24 2022, 16:57:22
Post #5

Четыре Литра
****
Group: Металариец
Posts: 377
Releases: 31
From: France
On Forums: 12 years 11 months
Thanks: 982 time(s)
France


Go to the top of the page
  Insert nick Quick quote
+Quote Post

Reply to this topicStart new topic
1 User(s) are reading this topic (1 Guests and 0 Anonymous Users)
0 Members:

 



- Lo-Fi Version Support form
Copyrights and abuse reports form
Time is now: 7th July 2022 - 11:30:51