Welcome Guest ( Log In | Register )

> Releases Upload / Добавление релизов

Добавить релиз тут / Click here to add release
Рекомендованные обменники / Recommended file shares

> Guillotine A.D. - Born To Fall (2022), Death Metal
post Jun 23 2022, 15:10:48
Post #1

Правь статус, ####!111
**************
Group: Металариец
Posts: 29,687
Releases: 21836
From: Г.Харьков
On Forums: 10 years 1 month
Thanks: 452831 time(s)
Unknown


(IMG:https://metalarea.org/images/audiocovers/2022_Jun/acov_tid366390_thumb.jpg)

*Artist: Guillotine A.D.
*Album: Born To Fall
*Year: 2022
*Genre: Death Metal
*Country: United States (IMG:https://metalarea.org/forum/style_images/flags/United%20States.png)
*Format: mp3@CBR320kbps
*Size: 110MB

Tracklist:
1. Vultures of Paradise
2. Exile
3. War First
4. Spiritual Insect
5. I Want to Believe
6. Born to Fall
7. Hammer
8. Madness of the Gods
******************************
Total playing time: 47:27




Extended info
Adam Miller Bass, Vocals
See also: Wicked King
Evan Posey Drums
See also: Wicked King
Lance Miller Guitars, Vocals (backing)
See also: ex-Maha Pralaya



Technical info
(IMG:https://metalarea.org/images/spectrogram/2022_Jun/9fc85d29002aace0f021ed70c4c5fb87.png)
Input File: 07. Hammer.mp3
Channels : 2
Sample Rate : 44100
Precision : 16-bit
Duration : 00:06:02.00 = 15964200 samples = 27150 CDDA sectors
File Size : 14.7M
Bit Rate : 325k
Sample Encoding: MPEG audio (layer I, II or III)
Comments :
Title=Hammer
Artist=Guillotine A.D.
Album=Born to Fall
Tracknumber=7
Year=2022
Genre=Death/Doom
Discnumber=1



Register


Go to the top of the page
  Insert nick Quick quote
+Quote Post
 
Start new topic
Replies (1 - 2)
post Jun 24 2022, 00:51:15
Post #2

Правь статус, ####!111
**************
Group: Металариец
Posts: 29,687
Releases: 21836
From: Г.Харьков
On Forums: 10 years 1 month
Thanks: 452831 time(s)
Unknown


FLAC (Tracks) 503 mb
Register


Thanks:
Go to the top of the page
  Insert nick Quick quote
+Quote Post
post Jun 26 2022, 15:58:18
Post #3

0%Tolerance
***********
Group: Металариец
Posts: 1,955
Releases: 0
On Forums: 9 years 9 months
Thanks: 413 time(s)
Unknown


Чёткое мясо.
Go to the top of the page
  Insert nick Quick quote
+Quote Post

Reply to this topicStart new topic
1 User(s) are reading this topic (1 Guests and 0 Anonymous Users)
0 Members:

 



- Lo-Fi Version Support form
Copyrights and abuse reports form
Time is now: 7th July 2022 - 12:46:37