Welcome Guest ( Log In | Register )

> Releases Upload / Добавление релизов

Добавить релиз тут / Click here to add release
Рекомендованные обменники / Recommended file shares

> Corvus Corax - Era Metallum (2022), Medieval Folk Metal (D17)
post Jun 23 2022, 15:18:35
Post #1

Serial Uploader
Group Icon
Group: V.I.P
Posts: 38,612
Releases: 36751
From: Lithuania
On Forums: 14 years 4 weeks
Thanks: 456112 time(s)
Lithuania


(IMG:https://metalarea.org/images/audiocovers/2022_Jun/acov_tid366391_thumb.jpg)

*Artist: Corvus Corax
*Album: Era Metallum
*Year: 2022
*Genre: Medieval Folk Metal
*Country: Germany (IMG:https://metalarea.org/forum/style_images/flags/Germany.png)
*Format: mp3@CBR320kbps
*Size: 243MB

Tracklist:
01. Intro Gjallarhorni (feat. Sami Yli-Sirniö) 01:12
02. Gjallarhorni (feat. Sami Yli-Sirniö) 03:19
03. Sverker (feat. Sami Yli-Sirniö) 04:12
04. Béowulf is mín nama (feat. Sami Yli-Sirniö) 05:04
05. Lá í mBealtaine (feat. Sami Yli-Sirniö) 04:44
06. Ragnarök (feat. Sami Yli-Sirniö & Arndis Halla) 07:36
07. Hugin & Munin (feat. Sami Yli-Sirniö & Arndis Halla) 05:45
08. Havfru (feat. Sami Yli-Sirniö) 05:11
09. Víkingar (feat. Sami Yli-Sirniö) 06:14)
10. Yggdrasill (feat. Sami Yli-Sirniö) 05:23
11. Gimlie (feat. Sami Yli-Sirniö & Arndis Halla) (05:27
12. Na láma-sa (feat. Sami Yli-Sirniö) 08:00
13. Lá í mbealtaine (feat. Hansi Kürsch, Bill Gould, Sonia Anubis & Sami Yli-Sirniö) (Bonus Track) 04:45
14. Ragnarök (feat. Sabina Classen & Sami Yli-Sirniö) (Bonus Track) 07:36
15. Béowulf is mín nama (feat. Doro & Sami Yli-Sirniö) (Bonus Track) 05:04
16. Víkingar (feat. Arndis Halla & Sami Yli-Sirniö) (Bonus Track) 06:14
17. Gimlie (feat. Kärtsy Hatakka, Sami Yli-Sirniö & Arndis Halla) (Bonus Track) 05:27
18. Yggdrasill (feat. Philipp Bischoff & Sami Yli-Sirniö) (Bonus Track) 05:25
19. Na láma-sa (feat. Alan Nemtheanga A. & Sami Yli-Sirniö) (Bonus Track) 08:00
******************************
Total playing time: 1:44:38

(IMG:https://metalarea.org/images/myspace.png)

(IMG:https://metalarea.org/images/youtube.png)

Extended info
First metallic album of german medievalists


Technical info
(IMG:https://metalarea.org/images/spectrogram/2022_Jun/7fbb4b6c3f3e5749e9980d876ac74f41.png)
Input File: 02 - Gjallarhorni (Era Metallum) (feat. Sami Yli-Sirniö).mp3
Channels : 2
Sample Rate : 44100
Precision : 16-bit
Duration : 00:03:19.00 = 8775900 samples = 14925 CDDA sectors
File Size : 8.16M
Bit Rate : 328k
Sample Encoding: MPEG audio (layer I, II or III)
Comments :
Title=Gjallarhorni (Era Metallum) (feat. Sami Yli-Sirniö)
Artist=匀愀洀椀 夀氀椀ⴀ匀椀爀渀椀
Album=Era Metallum
Tracknumber=2
Year=2022-06-24
Genre=Rock
Discnumber=1



Register


Go to the top of the page
  Insert nick Quick quote
+Quote Post
 
Start new topic
Replies (1 - 3)
post Jun 23 2022, 17:31:16
Post #2

Мракомыслъ Рiпѣыискiй
**************
Group: Металариец
Posts: 4,944
Releases: 7
From: http://gjoell.org/
On Forums: 16 years 1 month
Thanks: 1508 time(s)
Afghanistan


Странный поворот, нафига они металл заиграли? Вроде как у них половина пацанов 20 лет назад свалила в Tanzwut чтобы металл играть, а те кто не хотели, остались в Corvus Corax, но вот теперь всё равно его заиграли.
Звучит хорошо.
Go to the top of the page
  Insert nick Quick quote
+Quote Post
post Jun 24 2022, 05:24:56
Post #3

i listen to black metal
**************
Group: Металариец
Posts: 3,354
Releases: 144
From: Москва
On Forums: 15 years 6 months
Thanks: 2447 time(s)
Russian Federation


https://www.youtube.com/watch?v=XW91sq0bptY

не моё
Go to the top of the page
  Insert nick Quick quote
+Quote Post
post Jun 24 2022, 09:45:51
Post #4

Мракомыслъ Рiпѣыискiй
**************
Group: Металариец
Posts: 4,944
Releases: 7
From: http://gjoell.org/
On Forums: 16 years 1 month
Thanks: 1508 time(s)
Afghanistan


Судя по списку фитов, допущу что это румяный толстощёкий хлопец Сами Юли-Сирниё их уломал записать альбом. Поди сидели где-то на фесте, забухали и он и втёр, что это круто.

Альбом очень длинный, очень монотонный и однообразный. Как будто весь немецкий металл сразу послушал — и хорошо и уху не за что зацепиться и слушать больше не хочется.
Go to the top of the page
  Insert nick Quick quote
+Quote Post

Reply to this topicStart new topic
2 User(s) are reading this topic (2 Guests and 0 Anonymous Users)
0 Members:

 



- Lo-Fi Version Support form
Copyrights and abuse reports form
Time is now: 7th July 2022 - 12:27:42