Welcome Guest ( Log In | Register )

> Releases Upload / Добавление релизов

Добавить релиз тут / Click here to add release
Рекомендованные обменники / Recommended file shares

> Liber Null - For Whom Is The Night (2022), Black Metal
post Jun 23 2022, 15:18:47
Post #1

Правь статус, ####!111
**************
Group: Металариец
Posts: 2,985
Releases: 1518
On Forums: 11 years 7 months
Thanks: 29867 time(s)
Russian Federation


(IMG:https://metalarea.org/images/audiocovers/2022_Jun/acov_tid366392_thumb.jpg)

*Artist: Liber Null
*Album: For Whom Is The Night
*Year: 2022
*Genre: Black Metal
*Country: International (IMG:https://metalarea.org/forum/style_images/flags/International.png)
*Format: mp3@CBR320kbps
*Size: 89MB

Tracklist:
1.Nocturnal Craft 05:09
2.Hexenblood Vessel 07:37
3.Gandreidh 05:56
4.Mercy as a Blade 05:01
5.To Death's Light 08:35
6.They Listen In 06:33
******************************
Total playing time: 38:51

Preview 1

Extended info
Netherlands / Italy
Line up:
Thorns - Drums (Blut Aus Nord, Darvaza, Frostmoon Eclipse, Kult, Moloch, ex-Acherontas, ex-Glorior Belli, ex-Handful Of Hate, ex-Macabre Omen)
Ades - Guitars, Bass
Psaalm - Vocals (Frostmoon Eclipse, ex-Winterpath)


Technical info
(IMG:https://metalarea.org/images/spectrogram/2022_Jun/b831630333854a8157b2e0f3acf56cf9.png)
Input File: 04 - Mercy as a Blade.mp3
Channels : 2
Sample Rate : 44100
Precision : 16-bit
Duration : 00:05:01.08 = 13277672 samples = 22581.1 CDDA sectors
File Size : 12.2M
Bit Rate : 323k
Sample Encoding: MPEG audio (layer I, II or III)
Comments :
Title=Mercy as a Blade
Artist=Liber Null
Album=For Whom Is the Night
Tracknumber=04
Year=2022
Genre=Black Metal



Register


Go to the top of the page
  Insert nick Quick quote
+Quote Post
 
Start new topic
Replies (1 - 2)
post Jun 27 2022, 12:47:11
Post #2

I hate you all
**************
Group: Металариец
Posts: 2,973
Releases: 94
From: Ukraine
On Forums: 15 years 1 month
Thanks: 7533 time(s)
Ukraine




Thanks:
(1) Storky,
Go to the top of the page
  Insert nick Quick quote
+Quote Post
post Jun 29 2022, 10:26:13
Post #3

0%Tolerance
***********
Group: Металариец
Posts: 1,955
Releases: 0
On Forums: 9 years 9 months
Thanks: 413 time(s)
Unknown


Разово.
Go to the top of the page
  Insert nick Quick quote
+Quote Post

Reply to this topicStart new topic
1 User(s) are reading this topic (1 Guests and 0 Anonymous Users)
0 Members:

 



- Lo-Fi Version Support form
Copyrights and abuse reports form
Time is now: 7th July 2022 - 11:14:34