Welcome Guest ( Log In | Register )

> Releases Upload / Добавление релизов

Добавить релиз тут / Click here to add release
Рекомендованные обменники / Recommended file shares

 
Reply to this topicStart new topic
> Chaos Frame - Entropy (2022), Progressive Metal
post Jun 23 2022, 15:28:55
Post #1

Serial Uploader
Group Icon
Group: V.I.P
Posts: 38,607
Releases: 36751
From: Lithuania
On Forums: 14 years 4 weeks
Thanks: 456112 time(s)
Lithuania


(IMG:https://metalarea.org/images/audiocovers/2022_Jun/acov_tid366393_thumb.jpg)

*Artist: Chaos Frame
*Album: Entropy
*Year: 2022
*Genre: Progressive Metal
*Country: United States (IMG:https://metalarea.org/forum/style_images/flags/United%20States.png)
*Format: mp3@CBR320kbps
*Size: 100MB

Tracklist:
01. The Timepiece Shatters - Entropy, Pt. I 04:57
02. To Reap and Never Sow 05:01
03. Skyscraper 07:08
04. Solaire 03:45
05. Voluntary Extinction 03:49
06. Always Looking Down 08:57
07. The Late Goodbye 05:05
08. Forever is Nothing - Entropy, Pt. II 04:46
******************************
Total playing time: 43:28



(IMG:https://metalarea.org/images/youtube.png)

Technical info
(IMG:https://metalarea.org/images/spectrogram/2022_Jun/ecdb8f7a7761c957499b9568d2167c9b.png)
Input File: 02 - To Reap and Never Sow.mp3
Channels : 2
Sample Rate : 44100
Precision : 16-bit
Duration : 00:05:01.00 = 13274100 samples = 22575 CDDA sectors
File Size : 12.2M
Bit Rate : 324k
Sample Encoding: MPEG audio (layer I, II or III)
Comments :
Title=To Reap And Never Sow
Artist=Chaos Frame
Album=Entropy
Tracknumber=2
Year=2022-06-24
Discnumber=1



Register


Go to the top of the page
  Insert nick Quick quote
+Quote Post

Reply to this topicStart new topic
2 User(s) are reading this topic (2 Guests and 0 Anonymous Users)
0 Members:

 



- Lo-Fi Version Support form
Copyrights and abuse reports form
Time is now: 7th July 2022 - 10:49:05