Welcome Guest ( Log In | Register )

> Releases Upload / Добавление релизов

Добавить релиз тут / Click here to add release
Рекомендованные обменники / Recommended file shares

> Axioma - Sepsis (2022), Post-Black Metal (D5)
post Jun 23 2022, 17:41:59
Post #1

Правь статус, ####!111
**************
Group: Металариец
Posts: 5,203
Releases: 4774
From: Одесса
On Forums: 14 years 1 month
Thanks: 56112 time(s)
Ukraine


(IMG:http://metalarea.org/images/audiocovers/2022_Jun/acov_tid366397_thumb.jpg)

*Artist: Axioma
*Album: Sepsis
*Year: 2022
*Genre: Post-Black Metal
*Country: United States (IMG:http://metalarea.org/forum/style_images/flags/United%20States.png)
*Format: mp3@CBR320kbps
*Size: 97MB

Tracklist:
1. Blood Ruminations
2. Contortions of Passage
3. Septic
4. God Extraction
5. The Tower
6. Emptiness of Anguish
7. A New Dark Age
******************************
Total playing time: 40:36



Extended info
Line - up:

Aaron Dallison - Bass, Vocals (Keelhaul, ex-Escalation Anger, Brain Tentacles, Perdition Sect, The Not So Good Ol' Boys, ex-Ringworm, ex-Holy Ghost, ex-Abdullah, ex-State of Conviction, ex-We Live By Night)
Jon Vinson - Drums (Forged in Flame, Jesusegg, ex-Forever Untouched, Keratoma, ex-The Cauterized)
Cyril Blandino - Guitars (Forged in Flame, And Say We Did, ex-Morgue, ex-Superstatic Revolution)
J Meyers - Guitars (Aureae Crucis, ex-Forged in Flame (live))


Technical info
(IMG:http://metalarea.org/images/spectrogram/2022_Jun/a4d5ec1e22e04340729333a3771495f9.png)
Input File: 02 - Contortions of Passage.mp3
Channels : 2
Sample Rate : 44100
Precision : 16-bit
Duration : 00:06:56.00 = 18345600 samples = 31200 CDDA sectors
File Size : 16.8M
Bit Rate : 322k
Sample Encoding: MPEG audio (layer I, II or III)
Comments :
Title=Contortions of Passage
Artist=Axioma
Album=Sepsis
Tracknumber=2
Year=2022-06-24
Genre=Post-Black Metal



Register


Go to the top of the page
  Insert nick Quick quote
+Quote Post
 
Start new topic
Replies (1 - 2)
post Jun 25 2022, 21:39:52
Post #2

Семь Литров
*******
Group: Металариец
Posts: 717
Releases: 15
From: Brasil - Sao Paulo
On Forums: 2 years 2 months
Thanks: 590 time(s)
Brazil


Nice! (IMG:style_emoticons/default/9.gif)
Go to the top of the page
  Insert nick Quick quote
+Quote Post
post Jun 25 2022, 22:22:02
Post #3

Два Литра
**
Group: Завсегдатай
Posts: 160
Releases: 0
On Forums: 1 year 7 months
Thanks: 85 time(s)
Germany


"Post-Black Metal" (IMG:style_emoticons/default/15.gif)
Вот что бывает, когда копируешь дурацкие теги из Encyclopaedia Metallum.
Go to the top of the page
  Insert nick Quick quote
+Quote Post

Reply to this topicStart new topic
1 User(s) are reading this topic (1 Guests and 0 Anonymous Users)
0 Members:

 



- Lo-Fi Version Support form
Copyrights and abuse reports form
Time is now: 7th July 2022 - 12:12:22