Welcome Guest ( Log In | Register )

> Releases Upload / Добавление релизов

Добавить релиз тут / Click here to add release
Рекомендованные обменники / Recommended file shares

 
Reply to this topicStart new topic
> Tygers Of Pan Tang - The Wreck-Age/Burning In The Shade 1985-1987 [compilation] (2022), Heavy Metal (D)
post Jun 23 2022, 18:14:44
Post #1

Правь статус, ####!111
**************
Group: Металариец
Posts: 5,203
Releases: 4774
From: Одесса
On Forums: 14 years 1 month
Thanks: 56112 time(s)
Ukraine


(IMG:http://metalarea.org/images/audiocovers/2022_Jun/acov_tid366398_thumb.jpg)

*Artist: Tygers Of Pan Tang
*Album: The Wreck-Age/Burning In The Shade 1985-1987 [compilation]
*Year: 2022
*Genre: Heavy Metal
*Country: United Kingdom (IMG:http://metalarea.org/forum/style_images/flags/United%20Kingdom.png)
*Format: mp3@CBR320kbps
*Size: 359MB

Tracklist:
Disc 1 - The Wreck-Age
1. Waiting
2. Protection
3. Innocent Eyes
4. Desert of no Love
5. The Wreck-Age
6. Women in Cages
7. Victim
8. Ready to Run
9. All Change Faces
10. Forgive and Forget
Disc 2 - Burning in the Shade
11. The First (The Only One)
12. Hit It
13. Dream Ticket
14. Sweet Lies
15. Maria
16. Hideaway
17. Open to Seduction
18. The Circle of the Dance
19. Are You There
20. The Memory Fades
Disc 3 - The Wreck-Age Demos / Burning in the Shade Demos
21. Forgive and Forget
22. Not Guilty
23. Undercurrent
24. The Wreck-Age
25. You're on Your Own
26. Time to Regret
27. Slow Recovery
28. The Face of Innocence
29. Shadow of the Past
30. Waiting
31. Are You There?
32. The Circle of the Dance
33. Don’t Think I Could Leave
34. Hideaway
35. Hit It
36. Never Say Never
37. The Memory Fades
******************************
Total playing time: 2:31:16

Technical info
(IMG:http://metalarea.org/images/spectrogram/2022_Jun/d89227e37026f8019259781a622af8e0.png)
Input File: 03 - Undercurrent (Demo).mp3
Channels : 2
Sample Rate : 44100
Precision : 16-bit
Duration : 00:04:38.00 = 12259800 samples = 20850 CDDA sectors
File Size : 11.2M
Bit Rate : 321k
Sample Encoding: MPEG audio (layer I, II or III)
Comments :
Title=Undercurrent (Demo)
Artist=Tygers Of Pan Tang
Album=The Wreck-Age / Burning In The Shade 1985-1987 (Compilation)
Tracknumber=3
Year=2022-06-24
Discnumber=3



Register


Go to the top of the page
  Insert nick Quick quote
+Quote Post

Reply to this topicStart new topic
2 User(s) are reading this topic (2 Guests and 0 Anonymous Users)
0 Members:

 



- Lo-Fi Version Support form
Copyrights and abuse reports form
Time is now: 7th July 2022 - 11:52:18