Welcome Guest ( Log In | Register )

> Releases Upload / Добавление релизов

Добавить релиз тут / Click here to add release
Рекомендованные обменники / Recommended file shares

> Acts Of God - Believe (2022), Metalcore
post Jun 23 2022, 18:36:12
Post #1

Правь статус, ####!111
**************
Group: Металариец
Posts: 5,327
Releases: 4877
From: Одесса
On Forums: 14 years 2 months
Thanks: 57302 time(s)
Ukraine


(IMG:http://metalarea.org/images/audiocovers/2022_Jun/acov_tid366399_thumb.jpg)

*Artist: Acts Of God
*Album: Believe
*Year: 2022
*Genre: Metalcore
*Country: Spain (IMG:http://metalarea.org/forum/style_images/flags/Spain.png)
*Format: mp3@CBR320kbps
*Size: 77MB

Tracklist:
1. Life Is Pain 04:31
2. Hate 03:27
3. Beneath Your Grave 04:11
4. Strongest Son 03:47
5. The Cross 04:22
6. Patient Zero 04:10
7. Like a Wolf 04:40
8. Naphthalene 03:50
******************************
Total playing time: 32:58

Extended info
Line - up:

Eric Cabestany - Drums
Abel Marín - Guitars (ex-Spoyler)
Quico Bertran - Guitars
Xevi Poll - Vocals
David Cervantes - Bass




Technical info
(IMG:http://metalarea.org/images/spectrogram/2022_Jun/2396ef2eaef27e5c3b7861cf87ab028f.png)
Input File: 07 - Like a Wolf.mp3
Channels : 2
Sample Rate : 44100
Precision : 16-bit
Duration : 00:04:33.00 = 12039300 samples = 20475 CDDA sectors
File Size : 10.9M
Bit Rate : 320k
Sample Encoding: MPEG audio (layer I, II or III)
Comments :
Title=Like a Wolf
Artist=Acts of God
Album=Believe
Tracknumber=7
Year=2022-06-24
Genre=Metalcore



Register


Go to the top of the page
  Insert nick Quick quote
+Quote Post
 
Start new topic
Replies (1 - 2)
post Jun 24 2022, 06:56:47
Post #2

Восемь Литров
********
Group: Металариец
Posts: 820
Releases: 0
From: Нижний Новгород
On Forums: 12 years 9 months
Thanks: 199 time(s)
Russian Federation


Знаю их. Материал должен быть интересным.
Go to the top of the page
  Insert nick Quick quote
+Quote Post
post Jun 24 2022, 19:57:05
Post #3

Восемь Литров
********
Group: Металариец
Posts: 820
Releases: 0
From: Нижний Новгород
On Forums: 12 years 9 months
Thanks: 199 time(s)
Russian Federation


Ужасно. Всё испортило желание соответствовать шаблонному металкору.
Go to the top of the page
  Insert nick Quick quote
+Quote Post

Reply to this topicStart new topic
1 User(s) are reading this topic (1 Guests and 0 Anonymous Users)
0 Members:

 



- Lo-Fi Version Support form
Copyrights and abuse reports form
Time is now: 17th August 2022 - 08:36:39