Welcome Guest ( Log In | Register )

> Releases Upload / Добавление релизов

Добавить релиз тут / Click here to add release
Рекомендованные обменники / Recommended file shares

> Dawn Of Destiny - Of Silence (2022), Power Metal (D)
post Jun 23 2022, 18:53:57
Post #1

Правь статус, ####!111
**************
Group: Металариец
Posts: 29,685
Releases: 21836
From: Г.Харьков
On Forums: 10 years 1 month
Thanks: 452823 time(s)
Unknown


(IMG:https://metalarea.org/images/audiocovers/2022_Jun/acov_tid366400_thumb.jpg)

*Artist: Dawn Of Destiny
*Album: Of Silence
*Year: 2022
*Genre: Power Metal
*Country: Germany (IMG:https://metalarea.org/forum/style_images/flags/Germany.png)
*Format: mp3@CBR320kbps
*Size: 147MB

Tracklist:
1. We Are Your Voice
2. Judas in Me
3. Childhood
4. Say My Name
5. White Mystery
6. Not the Way It Is
7. Little Flower
8. Burning Heart
9. Silence
10. Run
11. The Curse
12. Inner Voice
13. This Is Our Legacy
******************************
Total playing time: 1:04:01



Extended info
Jens Faber Guitars (2005-present), Bass, Vocals (2006-present)
See also: Ani Lo. Projekt, Exos, Legions of the Night, Malefistum, ex-Black Horizons, ex-The Fallen One
Dirk Raczkiewicz Keyboards (2005-present)
See also: ex-Merlin's
Veith Offenbächer Guitars (2006-2014, 2021-present)
See also: Destiny, ex-Fairytale, ex-Black Leaf, ex-Dark Ages, ex-Eden, ex-Grizzly Adams, ex-Storms of Autumn, ex-Tequila Sunrise
Jeanette Scherff Vocals (lead) (2010-present)
See also: ex-Temple of Your Soul, ex-Impact
Philipp Bock Drums (2014-present)
See also: Legions of the Night, ex-Skadika, ex-Dark Light



Technical info
(IMG:https://metalarea.org/images/spectrogram/2022_Jun/df5289b2255911bb3240749e403817f3.png)
Input File: 09 - Silence.mp3
Channels : 2
Sample Rate : 44100
Precision : 16-bit
Duration : 00:04:25.81 = 11722221 samples = 19935.8 CDDA sectors
File Size : 10.7M
Bit Rate : 322k
Sample Encoding: MPEG audio (layer I, II or III)
Comments :
Title=Silence
Artist=Dawn Of Destiny
Album=Of Silence
Tracknumber=9/13
Year=2022



Register


Go to the top of the page
  Insert nick Quick quote
+Quote Post
 
Start new topic
Replies (1 - 3)
post Jun 23 2022, 21:09:21
Post #2

Восемь Литров
********
Group: Металариец
Posts: 836
Releases: 0
From: Sweden
On Forums: 13 years 3 months
Thanks: 29 time(s)
Sweden


Thank you.


Thanks:
Go to the top of the page
  Insert nick Quick quote
+Quote Post
post Jun 24 2022, 00:23:17
Post #3

Group: Дух
Posts: 3
Releases: 0
On Forums: 1 week 6 days
Thanks: 1 time(s)
Argentina


Thanks, Bro !


Thanks:
Go to the top of the page
  Insert nick Quick quote
+Quote Post
post Jun 24 2022, 19:07:42
Post #4

Group: Дух
Posts: 3
Releases: 0
From: Czech republic - Moravia
On Forums: 5 months 3 weeks
Thanks: 0 time(s)
Czech Republic


фантастический альбом спасибо гуру метала
Go to the top of the page
  Insert nick Quick quote
+Quote Post

Reply to this topicStart new topic
1 User(s) are reading this topic (1 Guests and 0 Anonymous Users)
0 Members:

 



- Lo-Fi Version Support form
Copyrights and abuse reports form
Time is now: 7th July 2022 - 11:15:54