Welcome Guest ( Log In | Register )

> Kawir - Γιγαντομαχία (War Of The Giants) [ep] (2022), Black Metal (D)
post Jun 23 2022, 19:33:39
Post #1

Правь статус, ####!111
**************
Group: Металариец
Posts: 3,361
Releases: 2155
From: Greece
On Forums: 14 years 11 months
Thanks: 22726 time(s)
Greece


(IMG:https://metalarea.org/images/audiocovers/2022_Jun/acov_tid366401_thumb.jpg)

*Artist: Kawir
*Album: Γιγαντομαχία (War Of The Giants) [ep]
*Year: 2022
*Genre: Black Metal
*Country: Greece (IMG:https://metalarea.org/forum/style_images/flags/Greece.png)
*Format: mp3@CBR320kbps
*Size: 32MB

Tracklist:
1.War of the Giants 04:48
2.Tiresias 04:02
3.Hecatoncheires 05:04
******************************
Total playing time: 13:54

Technical info
(IMG:https://metalarea.org/images/spectrogram/2022_Jun/72ddefec6383c9e8ce76f5536a6c5804.png)
Input File: 01.War of the Giants.mp3
Channels : 2
Sample Rate : 44100
Precision : 16-bit
Duration : 00:04:48.14 = 12706886 samples = 21610.4 CDDA sectors
File Size : 11.5M
Bit Rate : 320k
Sample Encoding: MPEG audio (layer I, II or III)
Comments :
Artist=Kawir
Year=0
Genre=12



Register


Go to the top of the page
  Insert nick Quick quote
+Quote Post
 
Start new topic
Replies (1 - 4)
post Jun 24 2022, 01:28:24
Post #2

Четыре Литра
****
Group: Металариец
Posts: 341
Releases: 0
On Forums: 4 years 1 week
Thanks: 154 time(s)
Mexico


Amazing Greek pagan/black metal. Also: holy shit! With Jim Mutilator guest vocals on track 2 and Dis Pater with guest keyboards! Awesome (IMG:style_emoticons/default/1488.gif) (IMG:style_emoticons/default/9.gif)


Thanks:
(1) Strego,
Go to the top of the page
  Insert nick Quick quote
+Quote Post
post Jun 24 2022, 05:05:11
Post #3

Маньяк
**********
Group: Металариец
Posts: 1,346
Releases: 37
From: Pietari
On Forums: 16 years 6 months
Thanks: 2213 time(s)
Russian Federation





Thanks:
Go to the top of the page
  Insert nick Quick quote
+Quote Post
post Jun 24 2022, 13:04:55
Post #4

Group: Подсевший
Posts: 22
Releases: 0
On Forums: 1 year 3 months
Thanks: 18 time(s)
Russian Federation


Мощно , греки порадовали , еще бы HATE MANIFESTO что-нибудь намутили .
Go to the top of the page
  Insert nick Quick quote
+Quote Post
post Jun 24 2022, 13:12:47
Post #5

Trickster
Group Icon
Group: V.I.P
Posts: 5,001
Releases: 318
On Forums: 11 years 4 months
Thanks: 13735 time(s)
Russian Federation


Отличный EP
Go to the top of the page
  Insert nick Quick quote
+Quote Post

Reply to this topicStart new topic
2 User(s) are reading this topic (2 Guests and 0 Anonymous Users)
0 Members:

 



- Lo-Fi Version Support form
Copyrights and abuse reports form
Time is now: 7th July 2022 - 11:26:56