Welcome Guest ( Log In | Register )

> Releases Upload / Добавление релизов

Добавить релиз тут / Click here to add release
Рекомендованные обменники / Recommended file shares

 
Reply to this topicStart new topic
> Norfulthing - Norfulthing [ep] (2022), Death Metal
post Jun 23 2022, 21:34:54
Post #1

Правь статус, ####!111
**************
Group: Металариец
Posts: 29,934
Releases: 22028
From: Г.Харьков
On Forums: 10 years 3 months
Thanks: 458199 time(s)
Unknown


(IMG:https://metalarea.org/images/audiocovers/2022_Jun/acov_tid366404_thumb.jpg)

*Artist: Norfulthing
*Album: Norfulthing [ep]
*Year: 2022
*Genre: Death Metal
*Country: Finland (IMG:https://metalarea.org/forum/style_images/flags/Finland.png)
*Format: mp3@CBR320kbps
*Size: 44MB

Tracklist:
1. Dots 02:25
2. Anger Turned Outward 02:21
3. Stochastic Teratomism 03:01
4. Beset by Leeches 02:11
5. Eyes Clouded by Viscous Visions 03:52
6. Hepatological Conformation to Monstrosity 04:22
******************************
Total playing time: 18:12



Technical info
(IMG:https://metalarea.org/images/spectrogram/2022_Jun/04d1585c4fd7337dcce0e2a3720a8dbf.png)
Input File: NORFULTHING - NORFULTHING - 06 Hepatological Conformation To Monstrosity.mp3
Channels : 2
Sample Rate : 44100
Precision : 16-bit
Duration : 00:04:22.73 = 11586261 samples = 19704.5 CDDA sectors
File Size : 10.8M
Bit Rate : 328k
Sample Encoding: MPEG audio (layer I, II or III)
Comments :
Title=Hepatological Conformation To Monstrosity
Artist=NORFULTHING
Album=NORFULTHING
Tracknumber=6
Year=2022



Register


Go to the top of the page
  Insert nick Quick quote
+Quote Post

Reply to this topicStart new topic
1 User(s) are reading this topic (1 Guests and 0 Anonymous Users)
0 Members:

 



- Lo-Fi Version Support form
Copyrights and abuse reports form
Time is now: 11th August 2022 - 07:30:38