Welcome Guest ( Log In | Register )

> Releases Upload / Добавление релизов

Добавить релиз тут / Click here to add release
Рекомендованные обменники / Recommended file shares

> Firn - Edge Of Another World (2013), Atmospheric Black Metal (D4)
post Jun 23 2022, 21:44:08
Post #1

Мегаманьяк
***********
Group: Металариец
Posts: 1,565
Releases: 302
On Forums: 3 years 6 months
Thanks: 4587 time(s)
Canada


(IMG:https://metalarea.org/images/audiocovers/2022_Jun/acov_tid366405_thumb.jpg)

*Artist: Firn
*Album: Edge Of Another World
*Year: 2013
*Genre: Atmospheric Black Metal
*Country: Hungary (IMG:https://metalarea.org/forum/style_images/flags/Hungary.png)
*Format: mp3@CBR320kbps
*Size: 78MB

Tracklist:
1. Glacier-Blue Death 08:16
2. Lethal Cloud from East 05:56
3. Mood (Mourning) 02:17
4. In a Forest 05:20
5. Escape to Lethargy 04:43
6. Mood (Wandering) 01:13
7. Hypothermia 06:28
******************************
Total playing time: 34:13

Extended info
vinyl rip by canadaspaceman

Edge of Another World LP blue vinyl

https://www.discogs.com/release/5518217-Firn-Edge-Of-Another-World

https://www.metal-archives.com/albums/Firn/Edge_of_Another_World/389244

Members:
Attila - Everything (2002-present)

July 2013
Catalog ID: FIP-03-V12
Version desc.: Limited edition, Color vinyl
Format: Vinyl (33⅓ RPM)
Limitation: 300 copies

Vinyl delineation:
100 Black
100 Transparent blue with black splatter
100 Transparent magenta with black splatter
The black items (and some colored) includes poster.

#3,4,5,6,7 appeared on:
Demo #2 Glorious Past (2013) and Demo #3 Harsh Regression (2013).

#1,2 tracks not on demos.

https://youtu.be/8oHKUE7vnz4
Lethal Cloud From East

https://www.youtube.com/c/FirnHun/videos


Technical info
(IMG:https://metalarea.org/images/spectrogram/2022_Jun/8098bc3ca354800e3ee6943328fe6ddf.png)
Input File: 6. Mood (Wandering).mp3
Channels : 2
Sample Rate : 44100
Precision : 16-bit
Duration : 00:01:13.07 = 3222299 samples = 5480.1 CDDA sectors
File Size : 2.97M
Bit Rate : 325k
Sample Encoding: MPEG audio (layer I, II or III)
Comments :
Artist=FIRN
Album=Edge of Another World [blue vinyl LP]
Year=2013
Genre=Atmospheric Black Metal



Register


Go to the top of the page
  Insert nick Quick quote
+Quote Post
 
Start new topic
Replies (1 - 1)
post Jun 24 2022, 15:33:32
Post #2

Литр
*
Group: Подсевший
Posts: 97
Releases: 0
On Forums: 3 years 2 months
Thanks: 8 time(s)
Israel


(IMG:style_emoticons/default/mad_ani.gif)


Thanks:
Go to the top of the page
  Insert nick Quick quote
+Quote Post

Reply to this topicStart new topic
1 User(s) are reading this topic (1 Guests and 0 Anonymous Users)
0 Members:

 



- Lo-Fi Version Support form
Copyrights and abuse reports form
Time is now: 11th August 2022 - 00:20:20