Welcome Guest ( Log In | Register )

> И неформату есть предел.

Рэп/хип-хоп/шансон/поп удаляются. Для них есть свои порталы.

 
Reply to this topicStart new topic
> Firn - Night Forest [demo] (2020), Atmospheric Dark-Ambient (D4)
post Jun 23 2022, 21:50:56
Post #1

Мегаманьяк
***********
Group: Металариец
Posts: 1,575
Releases: 301
On Forums: 3 years 6 months
Thanks: 4598 time(s)
Canada


(IMG:https://metalarea.org/images/audiocovers/2022_Jun/acov_tid366406_thumb.JPG)

*Artist: Firn
*Album: Night Forest [demo]
*Year: 2020
*Genre: Atmospheric Dark-Ambient
*Country: Hungary (IMG:https://metalarea.org/forum/style_images/flags/Hungary.png)
*Format: mp3@CBR320kbps
*Size: 53MB

Tracklist:
1. Tranquility 04:17
2. Twilight 03:25
3. Night Rain 03:54
4. Hypnosis 07:25
5. Delirium 03:44
******************************
Total playing time: 22:45

Extended info
Thanks to the original ripper and uploader, FIRN,

I split the single WAV file into separate tracks.

https://www.metal-archives.com/bands/Firn/3540370881


Technical info
(IMG:https://metalarea.org/images/spectrogram/2022_Jun/db9a7644de9dd744a45d03abb6e3263f.png)
Input File: 2. Twilight.mp3
Channels : 2
Sample Rate : 44100
Precision : 16-bit
Duration : 00:03:25.12 = 9045968 samples = 15384.3 CDDA sectors
File Size : 8.31M
Bit Rate : 324k
Sample Encoding: MPEG audio (layer I, II or III)
Comments :
Artist=FIRN
Album=Night Forest [Demo]
Year=2020
Genre=Atmospheric Dark-Ambient



Register


Thanks:
Go to the top of the page
  Insert nick Quick quote
+Quote Post

Reply to this topicStart new topic
1 User(s) are reading this topic (1 Guests and 0 Anonymous Users)
0 Members:

 



- Lo-Fi Version Support form
Copyrights and abuse reports form
Time is now: 17th August 2022 - 11:16:56