Welcome Guest ( Log In | Register )

> Releases Upload / Добавление релизов

Добавить релиз тут / Click here to add release
Рекомендованные обменники / Recommended file shares

> Chaotian - Effigies Of Obsolescence (2022), Death Metal
post Jun 23 2022, 23:42:15
Post #1

Правь статус, ####!111
**************
Group: Металариец
Posts: 29,685
Releases: 21836
From: Г.Харьков
On Forums: 10 years 1 month
Thanks: 452820 time(s)
Unknown


(IMG:https://metalarea.org/images/audiocovers/2022_Jun/acov_tid366408_thumb.jpg)

*Artist: Chaotian
*Album: Effigies Of Obsolescence
*Year: 2022
*Genre: Death Metal
*Country: Denmark (IMG:https://metalarea.org/forum/style_images/flags/Denmark.png)
*Format: mp3@CBR320kbps
*Size: 92MB

Tracklist:
1. Gangrene Dream 06:19
2. Into Megatopheth 05:37
3. Effigies of Obsolescence 06:21
4. Adipocere Feast 04:59
5. Etched Shadows 06:40
6. Fustuarium 04:53
7. Festering Carcinolith 05:46
******************************
Total playing time: 40:35




Extended info
Jonas Grønborg Bass (2017-present)
Andreas Nordgreen Drums, Vocals (2017-present)
See also: Hectichaos, Phrenelith, Sequestrum
Søren Willatzen Guitars, Vocals (2017-present)
See also: Lindorm, Sequestrum, ex-Accursed Years


Technical info
(IMG:https://metalarea.org/images/spectrogram/2022_Jun/af6e0d5334cac2f54c0e313ef40350c8.png)
Input File: 07 - Festering Carcinolith.mp3
Channels : 2
Sample Rate : 44100
Precision : 16-bit
Duration : 00:06:08.00 = 16228800 samples = 27600 CDDA sectors
File Size : 14.9M
Bit Rate : 324k
Sample Encoding: MPEG audio (layer I, II or III)
Comments :
Title=Festering Carcinolith
Artist=Chaotian
Album=Effigies Of Obsolecence
Tracknumber=7
Year=2022-06-24
Genre=Rock
Discnumber=1



Register


Go to the top of the page
  Insert nick Quick quote
+Quote Post
 
Start new topic
Replies (1 - 1)
post Jun 24 2022, 02:29:05
Post #2

Правь статус, ####!111
**************
Group: Металариец
Posts: 29,685
Releases: 21836
From: Г.Харьков
On Forums: 10 years 1 month
Thanks: 452820 time(s)
Unknown


FLAC (Tracks) 298 mb
Register


Go to the top of the page
  Insert nick Quick quote
+Quote Post

Reply to this topicStart new topic
1 User(s) are reading this topic (1 Guests and 0 Anonymous Users)
0 Members:

 



- Lo-Fi Version Support form
Copyrights and abuse reports form
Time is now: 7th July 2022 - 10:44:25