Welcome Guest ( Log In | Register )

> Chaotian - Effigies Of Obsolescence (2022), Death Metal
post Jun 23 2022, 23:42:15
Post #1

Правь статус, ####!111
**************
Group: Металариец
Posts: 31,449
Releases: 23190
From: Г.Харьков
On Forums: 10 years 9 months
Thanks: 488241 time(s)
Ukraine


(IMG:https://metalarea.org/images/audiocovers/2022_Jun/acov_tid366408_thumb.jpg)

*Artist: Chaotian
*Album: Effigies Of Obsolescence
*Year: 2022
*Genre: Death Metal
*Country: Denmark (IMG:https://metalarea.org/forum/style_images/flags/Denmark.png)
*Format: mp3@CBR320kbps
*Size: 92MB

Tracklist:
1. Gangrene Dream 06:19
2. Into Megatopheth 05:37
3. Effigies of Obsolescence 06:21
4. Adipocere Feast 04:59
5. Etched Shadows 06:40
6. Fustuarium 04:53
7. Festering Carcinolith 05:46
******************************
Total playing time: 40:35




Extended info
Jonas Grønborg Bass (2017-present)
Andreas Nordgreen Drums, Vocals (2017-present)
See also: Hectichaos, Phrenelith, Sequestrum
Søren Willatzen Guitars, Vocals (2017-present)
See also: Lindorm, Sequestrum, ex-Accursed Years


Technical info
(IMG:https://metalarea.org/images/spectrogram/2022_Jun/af6e0d5334cac2f54c0e313ef40350c8.png)
Input File: 07 - Festering Carcinolith.mp3
Channels : 2
Sample Rate : 44100
Precision : 16-bit
Duration : 00:06:08.00 = 16228800 samples = 27600 CDDA sectors
File Size : 14.9M
Bit Rate : 324k
Sample Encoding: MPEG audio (layer I, II or III)
Comments :
Title=Festering Carcinolith
Artist=Chaotian
Album=Effigies Of Obsolecence
Tracknumber=7
Year=2022-06-24
Genre=Rock
Discnumber=1



Register


Go to the top of the page
  Insert nick Quick quote
+Quote Post
 
Start new topic
Replies (1 - 2)
post Jun 24 2022, 02:29:05
Post #2

Правь статус, ####!111
**************
Group: Металариец
Posts: 31,449
Releases: 23190
From: Г.Харьков
On Forums: 10 years 9 months
Thanks: 488241 time(s)
Ukraine


FLAC (Tracks) 298 mb
Register


Go to the top of the page
  Insert nick Quick quote
+Quote Post
post Jul 26 2022, 07:56:37
Post #3

Орка тіло ляже в грунт, допоможе ЗСУ
**************
Group: Металариец
Posts: 2,782
Releases: 0
From: Україна
On Forums: 14 years 1 month
Thanks: 2470 time(s)
Ukraine


Заслушал эти ребят ещё на демо компиляхе, пришлись по вкусу.
Ждал альбом, интересно было что накрутят.
Накрутили Инкантатион/Имолатион/Суфокатион, если можно так сказать плюс минус.
Никаких тут кипятковых ручейков не будет, и откровений тоже, хороший крепкий альбом без восторгов и охов ахов.
Посмотрим что будет дальше, как разовьются парни.
А пока через время переслушаю этот альбум ещё раз, по обычной схеме так сказать.
Спасибо за релиз (IMG:style_emoticons/default/metaler.gif) (IMG:style_emoticons/default/9.gif) (IMG:style_emoticons/default/metaler.gif)


Thanks:
Go to the top of the page
  Insert nick Quick quote
+Quote Post

Reply to this topicStart new topic
1 User(s) are reading this topic (1 Guests and 0 Anonymous Users)
0 Members:

 



- Lo-Fi Version Support form
Copyrights and abuse reports form
Time is now: 8th February 2023 - 18:00:09